Огонь и Лед: Хроники драконов / Fire & Ice: The Dragon Chronicles (Питоф / Pitof) [2008, США, Румыния, фэнтези, драма, приключения, DVDRip] DVO

 
Автор Сообщение

TorrentFilm ®

Пол:

Стаж: 2 года

Сообщений: 7741



Награды: Нет

Торрент-статистика

Создавать темы 17-Янв-2016 00:08

[Цитировать]

Огонь и Лед: Хроники драконов / Fire & Ice: The Dragon Chronicles- Страна: США, Румыния
Жанр: фэнтези, драма, приключения
Год выпуска: 2008
Продолжительность: 01:22:20-Перевод: Профессиональный (двухголосый закадровый)
Cубтитры: нет-Режиссер: Питоф / Pitof
В ролях: Эми Эккер, Том Уисдом, Джон Рис-Дэвис, Арнольд Вослоу, Оана Пелля, Разван Василеску, Кебрал Ибака, Овиду Никулеску, Лоредана Гроза, Кристиан Мотью-Описание: Карпия - чудесное королевство в мире драконов, рыцарей и магии. Ею управляет король Августин и королева Ремени. На их спокойную некогда страну обрушивается Огненный Дракон. Он сеет панику и смерть везде, где появляется. Единственная возможность спастись - освободить другого дракона, Ледяного. На его поиски отправлется принцесса Луиза и несколько ее верных друзей.-Данный перевод на трекере отсутствовал.-Сэмпл-Качество видео: DVDRip
Формат видео: AVI
Видео: 704x384 (1.83:1), 25 fps, XviD MPEG-4 ~1980 kbps avg, 0.29 bit/pixel
Аудио: 48 kHz, AC3 Dolby Digital, 3/2 (L,C,R,l,r) + LFE ch, ~384 kbps

MediaInfo

General
Complete name : E:\Downloads\Fire.and.Ice.2008.DVO.avi
Format : AVI
Format/Info : Audio Video Interleave
File size : 1.37 GiB
Duration : 1h 22mn
Overall bit rate : 2 374 Kbps
Writing application : VirtualDubMod 1.5.10.2 (build 2540/release)
Writing library : VirtualDubMod build 2540/release
Video
ID : 0
Format : MPEG-4 Visual
Format profile : Advanced Simple@L5
Format settings, BVOP : 1
Format settings, QPel : No
Format settings, GMC : No warppoints
Format settings, Matrix : Default (MPEG)
Muxing mode : Packed bitstream
Codec ID : XVID
Codec ID/Hint : XviD
Duration : 1h 22mn
Bit rate : 1 980 Kbps
Width : 704 pixels
Height : 384 pixels
Display aspect ratio : 1.85:1
Frame rate : 25.000 fps
Color space : YUV
Chroma subsampling : 4:2:0
Bit depth : 8 bits
Scan type : Progressive
Compression mode : Lossy
Bits/(Pixel*Frame) : 0.293
Stream size : 1.14 GiB (83%)
Writing library : XviD 1.2.0.dev47 (UTC 2006-11-01)
Audio
ID : 1
Format : AC-3
Format/Info : Audio Coding 3
Mode extension : CM (complete main)
Format settings, Endianness : Big
Codec ID : 2000
Duration : 1h 22mn
Bit rate mode : Constant
Bit rate : 384 Kbps
Channel(s) : 6 channels
Channel positions : Front: L C R, Side: L R, LFE
Sampling rate : 48.0 KHz
Bit depth : 16 bits
Compression mode : Lossy
Stream size : 226 MiB (16%)
Alignment : Split accross interleaves
Interleave, duration : 40 ms (1.00 video frame)
Interleave, preload duration : 500 ms

Скриншот c названием фильма

Скриншоты

[Профиль] [ЛС]

Создавать темы 12-Июн-2016 08:50 (спустя 4 месяца 26 дней)

Топик был перенесен из форума Фильмы 2011 года в форум Фильмы 2006-2008 года
Russian Mafia
 
Кто просматривает тему:

Форум Тема Автор Размер
Программы [Графика] Раскаленный огонь Theme Go Launcher [Android 2.0+, RUS] TorrentFilm 3 MB
Фильмы 2011 года Ложный огонь Foxfire (1996) DVDRip-AVC | P, A РАЛЬФ 1.73 GB
Фильмы (HD Rips | 720p, 1080p) Перекрестный огонь / Bad Country (Крис Бринкер / Chris Brinker) [2014, США, боевик, триллер, драма, криминал, детектив, BDRip 1080p] MVO + 3x Sub (Rus, Ukr, Eng) + Original Eng bot 12.33 GB
Зарубежные мультфильмы Самолёты: Огонь и вода / Planes: Fire and Rescue (2014) BDRemux 1080р от ExKinoRay | Лицензия sergej644 20.64 GB
Зарубежные мультфильмы Самолеты: Огонь и вода / Planes: Fire and Rescue (2014) BDRip sergej644 749 MB
Зарубежные мультфильмы Самолёты: Огонь и вода / Planes: Fire and Rescue (2014) BDRip 1080p от ExKinoRay | Лицензия sergej644 5.8 GB
Зарубежные мультфильмы Самолеты: Огонь и вода / Planes: Fire and Rescue (2014) BDRip 1080p от Leonardo and Scarabey | Чистый звук sergej644 3.46 GB
Зарубежные мультфильмы Самолеты: Огонь и вода / Planes: Fire and Rescue (2014) BDRip 720p от HELLYWOOD | Лицензия sergej644 3.03 GB
Показать сообщения:    

Текущее время: Сегодня 10:12

Часовой пояс: GMT



Вы не можете начинать темы
Вы не можете отвечать на сообщения
Вы не можете редактировать свои сообщения
Вы не можете удалять свои сообщения
Вы не можете голосовать в опросах
Вы не можете прикреплять файлы к сообщениям
Вы не можете скачивать файлы