Огнём и мечом / Ogniem i mieczem / 4 серии (Ежи Гоффман / Jerzy Hoffman) [1999, Польша, драма, приключения, военный, история, HDTVRip] [Телевизионная версия] DVO (CP-Digital) + UKR + Original (Pol) + Sub (Rus)

 
Автор Сообщение

sergej644 ®

Пол:

Стаж: 4 года 11 месяцев

Сообщений: 6043

Откуда: Soviet Union



Награды: Нет

Торрент-статистика

Создавать темы 02-Сен-2014 09:06

[Цитировать]

Огнем и мечом / Ogniem i mieczem
Год выпуска: 1999
Страна: Польша
Жанр: драма, приключения, военный, история
Продолжительность: 00:49:54 + 00:49:46 + 00:51:54 + 00:51:30
Перевод: Профессиональный (двухголосый, закадровый) - CP-DIGITAL + Украинский (многоголосый, закадровый) - Компанія "Кіт"
Субтитры: русские - softsub (SRT)
Оригинальная аудио дорожка: польский
Режиссер: Ежи Гоффман / Jerzy Hoffman
В ролях:
Михал Жебровский (Jan Skrzetuski), Александр Домогаров (Jurko Bohun), Изабелла Скорупко (Helena Kurcewiczówna), Кшиштоф Ковалевский (Jan Onufry Zagloba), Богдан Ступка (Bohdan Chmielnicki), Анджей Северин (Jeremi Wisniowecki), Збигнев Замаховский (Michal Wolodyjowski), Виктор Зборовский (Longinus Podbipieta), Войцех Маляйкат (Rzedzian), Эва Висьневска (Kurcewiczowa), Руслана Писанка (Horpyna), Даниэль Ольбрыхский (Tuhaj-Bej)-Бюджет: $8 000 000
Мировая премьера: 8 февраля 1999-Описание: XVII век. Речь Посполита объята огнем, спровоцированным ссорой православного полковника Богдана Хмельницкого с паном Чаплинским, который запорол насмерть сына полковника. Оскорбленный Хмельницкий поднял Запорожскую Сечь, призвал крымских татар под предводительством Туган-бея, разбил войска короля Владислава.
На фоне диких грабежей, погромов, грандиозных батальных сцен благородный шляхтич Скшетуский и жестокий казацкий атаман Богун добиваются любви красавицы-полячки...
-Рейтинг
kinopoisk.ru: 7.980 (6110)
imdb.com: 7.10 (2321)
-Качество:HDTVRip
Формат: AVI //SAMPLE//
Видео: 720x400 (1.80:1), 25 fps, XviD MPEG-4 ~1929 - 2058 kbps avg, 0.29 bit/pixel
Аудио RUS: 48 kHz, AC3 Dolby Digital, 3/2 (L,C,R,l,r) + LFE ch, ~448 kbps - DVO
Аудио UKR: 48 kHz, AC3 Dolby Digital, 2/0 (L,R) ch, ~192 kbps - MVO
Аудио POL: 48 kHz, AC3 Dolby Digital, 3/2 (L,C,R,l,r) + LFE ch, ~448 kbps - Original

MediaInfo

1 серия

Общее
Полное имя : F:\Video\AVI\Films\Ognem.I.Mechem.1999.TRIPLE.HDTVRip.XviD.AC3.AllFilms\Ognem.I.Mechem.1999.E01.TRIPLE.HDTVRip.XviD.AC3.AllFilms.avi
Формат : AVI
Формат/Информация : Audio Video Interleave
Размер файла : 1,06 Гбайт
Продолжительность : 49 м.
Общий поток : 3043 Кбит/сек
Название фильма : Огнём и мечом / Ogniem i mieczem (1999)
Режиссёр : Shevon (HDTV 1080i)
Программа кодирования : VirtualDubMod 1.5.10.3 | www.virtualdub-fr.org || (build 2550/release)
Правообладатель : AllFilms (torrentfilm.net)
Примечание : TV-Version - E01
Видео
Идентификатор : 0
Формат : MPEG-4 Visual
Профиль формата : Advanced Simple@L5
Параметр BVOP формата : 1
Параметр QPel формата : Нет
Параметр GMC формата : Без точки перехода
Параметр матрицы формата : Выборочная
Идентификатор кодека : XVID
Идентификатор кодека/Подсказка : XviD
Продолжительность : 49 м.
Битрейт : 1935 Кбит/сек
Ширина : 720 пикселей
Высота : 400 пикселей
Соотношение сторон : 16:9
Частота кадров : 25,000 кадров/сек
Цветовое пространство : YUV
Субдискретизация насыщенности : 4:2:0
Битовая глубина : 8 бит
Тип развёртки : Прогрессивная
Метод сжатия : С потерями
Бит/(Пиксели*Кадры) : 0.269
Размер потока : 691 Мбайт (64%)
Библиотека кодирования : XviD 65
Аудио #1
Идентификатор : 1
Формат : AC-3
Формат/Информация : Audio Coding 3
Расширение режима : CM (complete main)
Параметр Endianness формата : Big
Идентификатор кодека : 2000
Продолжительность : 49 м.
Вид битрейта : Постоянный
Битрейт : 448 Кбит/сек
Каналы : 6 каналов
Расположение каналов : Front: L C R, Side: L R, LFE
Частота : 48,0 КГц
Битовая глубина : 16 бит
Метод сжатия : С потерями
Размер потока : 160 Мбайт (15%)
Выравнивание : Разделение по промежуткам
Продолжительность промежутка : 40 мс. (1,00 видеокадр)
Время предзагрузки промежутка : 500 мс.
Аудио #2
Идентификатор : 2
Формат : AC-3
Формат/Информация : Audio Coding 3
Расширение режима : CM (complete main)
Параметр Endianness формата : Big
Идентификатор кодека : 2000
Продолжительность : 49 м.
Вид битрейта : Постоянный
Битрейт : 192 Кбит/сек
Каналы : 2 канала
Расположение каналов : Front: L R
Частота : 48,0 КГц
Битовая глубина : 16 бит
Метод сжатия : С потерями
Размер потока : 68,5 Мбайт (6%)
Выравнивание : Разделение по промежуткам
Продолжительность промежутка : 40 мс. (1,00 видеокадр)
Время предзагрузки промежутка : 500 мс.
Аудио #3
Идентификатор : 3
Формат : AC-3
Формат/Информация : Audio Coding 3
Расширение режима : CM (complete main)
Параметр Endianness формата : Big
Идентификатор кодека : 2000
Продолжительность : 49 м.
Вид битрейта : Постоянный
Битрейт : 448 Кбит/сек
Каналы : 6 каналов
Расположение каналов : Front: L C R, Side: L R, LFE
Частота : 48,0 КГц
Битовая глубина : 16 бит
Метод сжатия : С потерями
Размер потока : 160 Мбайт (15%)
Выравнивание : Разделение по промежуткам
Продолжительность промежутка : 40 мс. (1,00 видеокадр)
Время предзагрузки промежутка : 500 мс.

2 серия

Общее
Полное имя : F:\Video\AVI\Films\Ognem.I.Mechem.1999.TRIPLE.HDTVRip.XviD.AC3.AllFilms\Ognem.I.Mechem.1999.E02.TRIPLE.HDTVRip.XviD.AC3.AllFilms.avi
Формат : AVI
Формат/Информация : Audio Video Interleave
Размер файла : 1,10 Гбайт
Продолжительность : 49 м.
Общий поток : 3167 Кбит/сек
Название фильма : Огнём и мечом / Ogniem i mieczem (1999)
Режиссёр : Shevon (HDTV 1080i)
Программа кодирования : VirtualDubMod 1.5.10.3 | www.virtualdub-fr.org || (build 2550/release)
Правообладатель : AllFilms (torrentfilm.net)
Примечание : TV-Version - E02
Видео
Идентификатор : 0
Формат : MPEG-4 Visual
Профиль формата : Advanced Simple@L5
Параметр BVOP формата : 1
Параметр QPel формата : Нет
Параметр GMC формата : Без точки перехода
Параметр матрицы формата : Выборочная
Идентификатор кодека : XVID
Идентификатор кодека/Подсказка : XviD
Продолжительность : 49 м.
Битрейт : 2060 Кбит/сек
Ширина : 720 пикселей
Высота : 400 пикселей
Соотношение сторон : 16:9
Частота кадров : 25,000 кадров/сек
Цветовое пространство : YUV
Субдискретизация насыщенности : 4:2:0
Битовая глубина : 8 бит
Тип развёртки : Прогрессивная
Метод сжатия : С потерями
Бит/(Пиксели*Кадры) : 0.286
Размер потока : 733 Мбайт (65%)
Библиотека кодирования : XviD 65
Аудио #1
Идентификатор : 1
Формат : AC-3
Формат/Информация : Audio Coding 3
Расширение режима : CM (complete main)
Параметр Endianness формата : Big
Идентификатор кодека : 2000
Продолжительность : 49 м.
Вид битрейта : Постоянный
Битрейт : 448 Кбит/сек
Каналы : 6 каналов
Расположение каналов : Front: L C R, Side: L R, LFE
Частота : 48,0 КГц
Битовая глубина : 16 бит
Метод сжатия : С потерями
Размер потока : 160 Мбайт (14%)
Выравнивание : Разделение по промежуткам
Продолжительность промежутка : 40 мс. (1,00 видеокадр)
Время предзагрузки промежутка : 500 мс.
Аудио #2
Идентификатор : 2
Формат : AC-3
Формат/Информация : Audio Coding 3
Расширение режима : CM (complete main)
Параметр Endianness формата : Big
Идентификатор кодека : 2000
Продолжительность : 49 м.
Вид битрейта : Постоянный
Битрейт : 192 Кбит/сек
Каналы : 2 канала
Расположение каналов : Front: L R
Частота : 48,0 КГц
Битовая глубина : 16 бит
Метод сжатия : С потерями
Размер потока : 68,4 Мбайт (6%)
Выравнивание : Разделение по промежуткам
Продолжительность промежутка : 40 мс. (1,00 видеокадр)
Время предзагрузки промежутка : 500 мс.
Аудио #3
Идентификатор : 3
Формат : AC-3
Формат/Информация : Audio Coding 3
Расширение режима : CM (complete main)
Параметр Endianness формата : Big
Идентификатор кодека : 2000
Продолжительность : 49 м.
Вид битрейта : Постоянный
Битрейт : 448 Кбит/сек
Каналы : 6 каналов
Расположение каналов : Front: L C R, Side: L R, LFE
Частота : 48,0 КГц
Битовая глубина : 16 бит
Метод сжатия : С потерями
Размер потока : 160 Мбайт (14%)
Выравнивание : Разделение по промежуткам
Продолжительность промежутка : 40 мс. (1,00 видеокадр)
Время предзагрузки промежутка : 500 мс.

3 серия

Общее
Полное имя : F:\Video\AVI\Films\Ognem.I.Mechem.1999.TRIPLE.HDTVRip.XviD.AC3.AllFilms\Ognem.I.Mechem.1999.E03.TRIPLE.HDTVRip.XviD.AC3.AllFilms.avi
Формат : AVI
Формат/Информация : Audio Video Interleave
Размер файла : 1,10 Гбайт
Продолжительность : 51 м.
Общий поток : 3039 Кбит/сек
Название фильма : Огнём и мечом / Ogniem i mieczem (1999)
Режиссёр : Shevon (HDTV 1080i)
Программа кодирования : VirtualDubMod 1.5.10.3 | www.virtualdub-fr.org || (build 2550/release)
Правообладатель : AllFilms (torrentfilm.net)
Примечание : TV-Version - E03
Видео
Идентификатор : 0
Формат : MPEG-4 Visual
Профиль формата : Advanced Simple@L5
Параметр BVOP формата : 1
Параметр QPel формата : Нет
Параметр GMC формата : Без точки перехода
Параметр матрицы формата : Выборочная
Идентификатор кодека : XVID
Идентификатор кодека/Подсказка : XviD
Продолжительность : 51 м.
Битрейт : 1931 Кбит/сек
Ширина : 720 пикселей
Высота : 400 пикселей
Соотношение сторон : 16:9
Частота кадров : 25,000 кадров/сек
Цветовое пространство : YUV
Субдискретизация насыщенности : 4:2:0
Битовая глубина : 8 бит
Тип развёртки : Прогрессивная
Метод сжатия : С потерями
Бит/(Пиксели*Кадры) : 0.268
Размер потока : 717 Мбайт (64%)
Библиотека кодирования : XviD 65
Аудио #1
Идентификатор : 1
Формат : AC-3
Формат/Информация : Audio Coding 3
Расширение режима : CM (complete main)
Параметр Endianness формата : Big
Идентификатор кодека : 2000
Продолжительность : 51 м.
Вид битрейта : Постоянный
Битрейт : 448 Кбит/сек
Каналы : 6 каналов
Расположение каналов : Front: L C R, Side: L R, LFE
Частота : 48,0 КГц
Битовая глубина : 16 бит
Метод сжатия : С потерями
Размер потока : 166 Мбайт (15%)
Выравнивание : Разделение по промежуткам
Продолжительность промежутка : 40 мс. (1,00 видеокадр)
Время предзагрузки промежутка : 500 мс.
Аудио #2
Идентификатор : 2
Формат : AC-3
Формат/Информация : Audio Coding 3
Расширение режима : CM (complete main)
Параметр Endianness формата : Big
Идентификатор кодека : 2000
Продолжительность : 51 м.
Вид битрейта : Постоянный
Битрейт : 192 Кбит/сек
Каналы : 2 канала
Расположение каналов : Front: L R
Частота : 48,0 КГц
Битовая глубина : 16 бит
Метод сжатия : С потерями
Размер потока : 71,3 Мбайт (6%)
Выравнивание : Разделение по промежуткам
Продолжительность промежутка : 40 мс. (1,00 видеокадр)
Время предзагрузки промежутка : 500 мс.
Аудио #3
Идентификатор : 3
Формат : AC-3
Формат/Информация : Audio Coding 3
Расширение режима : CM (complete main)
Параметр Endianness формата : Big
Идентификатор кодека : 2000
Продолжительность : 51 м.
Вид битрейта : Постоянный
Битрейт : 448 Кбит/сек
Каналы : 6 каналов
Расположение каналов : Front: L C R, Side: L R, LFE
Частота : 48,0 КГц
Битовая глубина : 16 бит
Метод сжатия : С потерями
Размер потока : 166 Мбайт (15%)
Выравнивание : Разделение по промежуткам
Продолжительность промежутка : 40 мс. (1,00 видеокадр)
Время предзагрузки промежутка : 500 мс.

4 серия

Общее
Полное имя : F:\Video\AVI\Films\Ognem.I.Mechem.1999.TRIPLE.HDTVRip.XviD.AC3.AllFilms\Ognem.I.Mechem.1999.E04.TRIPLE.HDTVRip.XviD.AC3.AllFilms.avi
Формат : AVI
Формат/Информация : Audio Video Interleave
Размер файла : 1,09 Гбайт
Продолжительность : 51 м.
Общий поток : 3041 Кбит/сек
Название фильма : Огнём и мечом / Ogniem i mieczem (1999)
Режиссёр : Shevon (HDTV 1080i)
Программа кодирования : VirtualDubMod 1.5.10.3 | www.virtualdub-fr.org || (build 2550/release)
Правообладатель : AllFilms (torrentfilm.net)
Примечание : TV-Version - E04
Видео
Идентификатор : 0
Формат : MPEG-4 Visual
Профиль формата : Advanced Simple@L5
Параметр BVOP формата : 1
Параметр QPel формата : Нет
Параметр GMC формата : Без точки перехода
Параметр матрицы формата : Выборочная
Идентификатор кодека : XVID
Идентификатор кодека/Подсказка : XviD
Продолжительность : 51 м.
Битрейт : 1934 Кбит/сек
Ширина : 720 пикселей
Высота : 400 пикселей
Соотношение сторон : 16:9
Частота кадров : 25,000 кадров/сек
Цветовое пространство : YUV
Субдискретизация насыщенности : 4:2:0
Битовая глубина : 8 бит
Тип развёртки : Прогрессивная
Метод сжатия : С потерями
Бит/(Пиксели*Кадры) : 0.269
Размер потока : 712 Мбайт (64%)
Библиотека кодирования : XviD 65
Аудио #1
Идентификатор : 1
Формат : AC-3
Формат/Информация : Audio Coding 3
Расширение режима : CM (complete main)
Параметр Endianness формата : Big
Идентификатор кодека : 2000
Продолжительность : 51 м.
Вид битрейта : Постоянный
Битрейт : 448 Кбит/сек
Каналы : 6 каналов
Расположение каналов : Front: L C R, Side: L R, LFE
Частота : 48,0 КГц
Битовая глубина : 16 бит
Метод сжатия : С потерями
Размер потока : 165 Мбайт (15%)
Выравнивание : Разделение по промежуткам
Продолжительность промежутка : 40 мс. (1,00 видеокадр)
Время предзагрузки промежутка : 500 мс.
Аудио #2
Идентификатор : 2
Формат : AC-3
Формат/Информация : Audio Coding 3
Расширение режима : CM (complete main)
Параметр Endianness формата : Big
Идентификатор кодека : 2000
Продолжительность : 51 м.
Вид битрейта : Постоянный
Битрейт : 192 Кбит/сек
Каналы : 2 канала
Расположение каналов : Front: L R
Частота : 48,0 КГц
Битовая глубина : 16 бит
Метод сжатия : С потерями
Размер потока : 70,7 Мбайт (6%)
Выравнивание : Разделение по промежуткам
Продолжительность промежутка : 40 мс. (1,00 видеокадр)
Время предзагрузки промежутка : 500 мс.
Аудио #3
Идентификатор : 3
Формат : AC-3
Формат/Информация : Audio Coding 3
Расширение режима : CM (complete main)
Параметр Endianness формата : Big
Идентификатор кодека : 2000
Продолжительность : 51 м.
Вид битрейта : Постоянный
Битрейт : 448 Кбит/сек
Каналы : 6 каналов
Расположение каналов : Front: L C R, Side: L R, LFE
Частота : 48,0 КГц
Битовая глубина : 16 бит
Метод сжатия : С потерями
Размер потока : 165 Мбайт (15%)
Выравнивание : Разделение по промежуткам
Продолжительность промежутка : 40 мс. (1,00 видеокадр)
Время предзагрузки промежутка : 500 мс.

Скриншоты

-

Знаете ли Вы, что...


  • Фильм снят по мотивам романа Хенрика Сенкевича «Огнем и мечом» (Ogniem i mieczem, 1884).
  • Премьера телеверсии (4 серии почти по часу) состоялась 14 апреля 2001 года.
    -
  • --
    [Профиль] [ЛС]
    Кто просматривает тему:

    Форум Тема Автор Размер
    Горячие Новинки Caribbean! / Огнём и мечом 2: На Карибы! [RePack] [RUS] (2015) (1.0) TorrentFilm 451 MB
    Фильмы (HD DVD, Blu-ray и BDRemux) Бегущий в лабиринте: Испытание огнём / Maze Runner: The Scorch Trials (2015) BDRemux 1080p BOSS 28.8 GB
    Фильмы (HD Rips | 720p, 1080p) Бегущий в лабиринте: Испытание огнём / Maze Runner: The Scorch Trials (2015) BDRip 1080p | Лицензия Russian Mafia 10.25 GB
    Фильмы (HD Rips | 720p, 1080p) Бегущий в лабиринте: Испытание огнём / Maze Runner: The Scorch Trials (2015) BDRip 720p | Лицензия Russian Mafia 5.66 GB
    Фильмы (HD DVD, Blu-ray и BDRemux) Бегущий в лабиринте: Испытание огнём / Maze Runner: The Scorch Trials (2015) Blu-ray EUR | Лицензия достали все 44.74 GB
    Фильмы (DVD 5/9) Бегущий в лабиринте: Испытание огнём / Maze Runner: The Scorch Trials (2015) DVD5 BOSS 4.36 GB
    Фильмы 2015 года Бегущий в лабиринте: Испытание огнём / Maze Runner: The Scorch Trials (2015) HDRip | Лицензия достали все 1.37 GB
    Фильмы 2015 года Бегущий в лабиринте: Испытание огнём / Maze Runner: The Scorch Trials (Уэс Болл / Wes Ball) [2015, США, фантастика, боевик, триллер, BDRip-AVC] Dub + Original (Eng) + Sub (Rus, Eng) TorrentFilm 2.18 GB
    Показать сообщения:    

    Текущее время: Сегодня 04:22

    Часовой пояс: GMT



    Вы не можете начинать темы
    Вы не можете отвечать на сообщения
    Вы не можете редактировать свои сообщения
    Вы не можете удалять свои сообщения
    Вы не можете голосовать в опросах
    Вы не можете прикреплять файлы к сообщениям
    Вы не можете скачивать файлы