Огни притона (Александр Гордон) [2011 г. Россия. Драма. BDRip 1080p]

 
Автор Сообщение

painkiller ®

Стаж: 2 года 3 месяца

Сообщений: 582



Награды: Нет

Торрент-статистика

Создавать темы 15-Авг-2014 10:22

[Цитировать]

Огни притона- Страна: Россия
Жанр: Драма
Год выпуска: 2011
Продолжительность: 01:51:44-Оригинальная аудиодорожка: Русская-Режиссёр: Александр Гордон-В ролях: Оксана Фандера, Алексей Левинский, Анна Слю, Катерина Шпица, Богдан Ступка, Ада Роговцева, Евгений Цыганов, Кристиан Жереги, Наталия Фиссон, Анжела Чобану-Описание: Действие фильма происходит в Одессе в 1958 году. Главная героиня - мама Люба - хозяйка маленького борделя. В ее подчинении - две «девочки», Зинка-Гитлер и Зигота. Они живут душа в душу. В маму Любу влюблен сын прокурора Аркаша, а она любит Адама, юродивого и поэта...-Исходник: Ogni Pritona 2011 Blu-ray AVC DTS-HD 5.1 DD 5.1 - BLUEBIRD
Тип релиза: BDRip (NiP)
Контейнер: MKV
Видео: H264 / 13993 kbps / 1920x804 / 24 fps / L 4.1
Аудио: Русский / Dolby Digital / 5.1 / 448 kbps / 48 kHz
Субтитры 1: Английские srt
Субтитры 2: Русские srt
Чаптеры: есть
-Source vs Encode


MediaInfo

Полное имя                       : Ogni.Pritona.2011.Bl-ray.1080p.x264-NiP.mkv
Формат                           : Matroska
Версия формата                   : Version 2
Размер файла                     : 11,3 Гбайт
Продолжительность                : 1 ч. 51 м.
Общий поток                      : 14,4 Мбит/сек
Название фильма                  : HANSMER
Дата кодирования                 : UTC 2012-02-23 14:00:47
Программа кодирования            : mkvmerge v5.3.0 ('I could have danced') built on Feb  9 2012 10:38:07
Библиотека кодирования           : libebml v1.2.3 + libmatroska v1.3.0
Видео
Идентификатор                    : 1
Формат                           : AVC
Формат/Информация                : Advanced Video Codec
Профиль формата                  : High@L4.1
Параметр CABAC формата           : Да
Параметр ReFrames формата        : 5 кадров
Идентификатор кодека             : V_MPEG4/ISO/AVC
Продолжительность                : 1 ч. 51 м.
Битрейт                          : 14,0 Мбит/сек
Ширина                           : 1920 пикселей
Высота                           : 804 пикселя
Соотношение сторон               : 2,40:1
Частота кадров                   : 24,000 кадра/сек
Цветовое пространство            : YUV
Субдискретизация насыщенности    : 4:2:0
Битовая глубина                  : 8 бит
Тип развёртки                    : Прогрессивная
Бит/(Пиксели*Кадры)              : 0.378
Размер потока                    : 10,7 Гбайт (95%)
Заголовок                        : Ogni.Pritona.2011.Bl-ray.1080p.x264-NiP
Библиотека кодирования           : x264 core 120 r2164 da19765
Настройки программы              : cabac=1 / ref=5 / deblock=1:-3:-3 / analyse=0x3:0x113 / me=umh / subme=11 / psy=1 / psy_rd=1.00:0.00 / mixed_ref=1 / me_range=48 / chroma_me=1 / trellis=2 / 8x8dct=1 / cqm=0 / deadzone=21,11 / fast_pskip=0 / chroma_qp_offset=-2 / threads=12 / sliced_threads=0 / nr=0 / decimate=0 / interlaced=0 / bluray_compat=0 / constrained_intra=0 / bframes=7 / b_pyramid=2 / b_adapt=2 / b_bias=0 / direct=3 / weightb=1 / open_gop=0 / weightp=2 / keyint=240 / keyint_min=24 / scenecut=40 / intra_refresh=0 / rc_lookahead=60 / rc=2pass / mbtree=0 / bitrate=14000 / ratetol=1.0 / qcomp=0.80 / qpmin=0 / qpmax=69 / qpstep=4 / cplxblur=20.0 / qblur=0.5 / vbv_maxrate=50000 / vbv_bufsize=62500 / nal_hrd=none / ip_ratio=1.20 / pb_ratio=1.10 / aq=1:0.80
Язык                             : English
Коэффициенты матрицы             : BT.709-5, BT.1361, IEC 61966-2-4 709, SMPTE RP177
Аудио
Идентификатор                    : 2
Формат                           : AC-3
Формат/Информация                : Audio Coding 3
Расширение режима                : CM (complete main)
Идентификатор кодека             : A_AC3
Продолжительность                : 1 ч. 51 м.
Вид битрейта                     : Постоянный
Битрейт                          : 448 Кбит/сек
Каналы                           : 6 каналов
Расположение каналов             : Front: L C R, Side: L R, LFE
Частота                          : 48,0 КГц
Битовая глубина                  : 16 бит
Метод сжатия                     : С потерями
Размер потока                    : 358 Мбайт (3%)
Язык                             : Russian
Текст #1
Идентификатор                    : 3
Формат                           : UTF-8
Идентификатор кодека             : S_TEXT/UTF8
Идентификатор кодека/Информация  : UTF-8 Plain Text
Язык                             : English
Текст #2
Идентификатор                    : 4
Формат                           : UTF-8
Идентификатор кодека             : S_TEXT/UTF8
Идентификатор кодека/Информация  : UTF-8 Plain Text
Язык                             : Russian
Меню
00:00:00.000                     : ru:Глава 1
00:07:05.458                     : ru:Глава 2
00:12:00.375                     : ru:Глава 3
00:17:06.500                     : ru:Глава 4
00:23:33.917                     : ru:Глава 5
00:31:06.667                     : ru:Глава 6
00:35:02.667                     : ru:Глава 7
00:39:22.292                     : ru:Глава 8
00:44:24.458                     : ru:Глава 9
00:50:00.083                     : ru:Глава 10
00:56:22.125                     : ru:Глава 11
01:02:39.833                     : ru:Глава 12
01:08:08.583                     : ru:Глава 13
01:14:33.167                     : ru:Глава 14
01:22:37.625                     : ru:Глава 15
01:28:53.458                     : ru:Глава 16
01:34:36.000                     : ru:Глава 17
01:42:55.000                     : ru:Глава 18
[Профиль] [ЛС]
Кто просматривает тему:

Показать сообщения:    

Текущее время: Сегодня 02:44

Часовой пояс: GMT



Вы не можете начинать темы
Вы не можете отвечать на сообщения
Вы не можете редактировать свои сообщения
Вы не можете удалять свои сообщения
Вы не можете голосовать в опросах
Вы не можете прикреплять файлы к сообщениям
Вы не можете скачивать файлы