Овод (Александр Файнциммер) [1955, драма, DVB]

 
Автор Сообщение

reversefile ®

Пол:

Стаж: 4 года 5 месяцев

Сообщений: 842

Откуда: ReverseFile.org



Награды: Нет

Торрент-статистика

Создавать темы 25-Июл-2014 01:16

[Цитировать]

Овод
Запись сделана и любезно предоставлена коллегой ItarTass
Жанр: драма
Год выпуска: 1955
Продолжительность: 01:36:03
Режиссёр: Александр Файнциммер
В ролях: Олег Стриженов, Марианна Стриженова, Николай Симонов, Владимир Этуш, Семен Свашенко, Павел Усовниченко, Вадим Медведев, Владимир Честноков, Рубен Симонов, Антоний Ходурский, Анна Лисянская, Григорий Шпигель, Елена Юнгер, Борис Дмоховский, Яков Малютин, Ефим Копелян, Константин Адашевский, Эммануил Геллер, Георгий Милляр, Павел Панков
Описание: Фильм поставлен по мотивам романа Этель Лилиан Войнич и рассказывает о борьбе итальянских патриотов против австрийских оккупантов за свою независимость.
Режиссер А. Файнциммер воспроизводил события популярного романа, сгущая его романтические краски, акцентируя роковые случайности, мелодраматические эффекты.
Доп. информация:
Запись потока *.ts со спутника Ямал 202, 49° в.д., ремукс в *.mpg программой VideoReDo.
Качество видео: DVB
Формат видео: MPEG-PS
Видео: MPEG2 Video, 704(768)x576 (4:3), 25,000 кадров/сек, 4840 Кбит/сек
Аудио: MPEG Audio, 48,0 КГц, 192 Кбит/сек, 2 канала

MediaInfo

Общее
Полное имя : D:\Torrent\ОВОД (ZVEZDA).mpg
Формат : MPEG-PS
Размер файла : 3,43 Гбайт
Продолжительность : 1 ч. 36 м.
Режим общего битрейта : Переменный
Общий поток : 5116 Кбит/сек
Видео
Идентификатор : 224 (0xE0)
Формат : MPEG Video
Версия формата : Version 2
Профиль формата : Main@Main
Параметр BVOP формата : Да
Параметр матрицы формата : Выборочная
Параметр GOP формата : Variable
Продолжительность : 1 ч. 36 м.
Вид битрейта : Переменный
Битрейт : 4840 Кбит/сек
Ширина : 704 пикселя
Высота : 576 пикселей
Соотношение сторон : 4:3
Частота кадров : 25,000 кадров/сек
Стандарт вещания : PAL
Цветовое пространство : YUV
Субдискретизация насыщенности : 4:2:0
Битовая глубина : 8 бит
Тип развёртки : Чересстрочная
Порядок развёртки : Верхнее поле первое
Метод сжатия : С потерями
Бит/(Пиксели*Кадры) : 0.477
Временной код первого кадра : 00:00:00:00
Оригинал временного кода : Group of pictures header
Размер потока : 3,24 Гбайт (94%)
Аудио
Идентификатор : 192 (0xC0)
Формат : MPEG Audio
Версия формата : Version 1
Профиль формата : Layer 2
Продолжительность : 1 ч. 36 м.
Вид битрейта : Постоянный
Битрейт : 192 Кбит/сек
Каналы : 2 канала
Частота : 48,0 КГц
Метод сжатия : С потерями
Задержка видео : -28 мс.
Размер потока : 132 Мбайт (4%)
[Профиль] [ЛС]

Создавать темы 06-Авг-2015 22:06 (спустя 1 год)

Топик был перенесен из форума Кино СССР в форум Кино СССР
sergej644
 
Кто просматривает тему:

Показать сообщения:    

Текущее время: Сегодня 22:41

Часовой пояс: GMT



Вы не можете начинать темы
Вы не можете отвечать на сообщения
Вы не можете редактировать свои сообщения
Вы не можете удалять свои сообщения
Вы не можете голосовать в опросах
Вы не можете прикреплять файлы к сообщениям
Вы не можете скачивать файлы