Оверлорд / Overlord (2018) BDRip 1080p | Line | UKR

 
Author Message

BOSS ®

Gender:

Longevity: 4 years 6 months

Posts: 14056

Location: ODESSA



: 22 ()

Mega Seeder 5 (1) Mega Seeder 3 (1) Top Keeper 2 (1)
Торрент-статистика

Post 10-Feb-2019 18:30

[Quote]

Информация о фильме
Название: Оверлорд
Оригинальное название: Overlord
Год выхода: 2018
Жанр: Ужасы, фантастика, боевик, военный
Режиссер: Джулиус Эйвери
В ролях: Джован Адепо, Уайатт Рассел, Матильда Олливье, Йохан Филип Асбек, Джон Магаро, Йен де Кестекер, Джейкоб Андерсон, Доминик Эпплуайт, Джанни Тофер, Джозеф Куинн
О фильме:
Накануне высадки союзников в Нормандии отряд американских десантников проникают в оккупированный немцами посёлок, чтобы разрушить их радиомачту. Лазутчикам предстоит столкнуться не только с военными, но и с жуткими последствиями нацистских экспериментов.

Страна: США, Канада
Продолжительность: 01:49:47
Перевод: Профессиональный (дублированный) [Line, Украинский]
Файл
Кодек: x.264
Качество: BDRip 1080p
Видео: AVC, 1920x800 (2,40:1), 23.976 fps, 9717 Кбит/сек
Аудио 1: AC-3, 48,0 КГц, 2 ch, 192 Кбит/сек (Ukrainian)
Аудио 2: AC-3, 48,0 КГц, 6 ch, 640 Кбит/сек (English)
Субтитры: Украинские (форсированные на французскую,немецкую речь), английские (форс,полные,SDH)
Сэмпл

MI

Общее
Уникальный идентификатор : 239744592449867393192133174054888002985 (0xB45D21038CAD48BDBAFF22E86485D5A9)
Полное имя : Overlord.2018.1080p.BDRip.Ukr.Eng.mkv
Формат : Matroska
Версия формата : Version 4
Размер файла : 8,09 Гбайт
Продолжительность : 1 ч. 49 м.
Общий поток : 10,5 Мбит/сек
Дата кодирования : UTC 2019-02-10 14:42:16
Программа кодирования : mkvmerge v8.3.0 ('Over the Horizon') 64bit
Библиотека кодирования : libebml v1.3.1 + libmatroska v1.4.2
Видео
Идентификатор : 1
Формат : AVC
Формат/Информация : Advanced Video Codec
Профиль формата : High@L4.1
Настройки формата : CABAC / 5 Ref Frames
Параметр CABAC формата : Да
Параметр RefFrames формата : 5 кадров
Идентификатор кодека : V_MPEG4/ISO/AVC
Продолжительность : 1 ч. 49 м.
Битрейт : 9717 Кбит/сек
Ширина : 1920 пикселей
Высота : 800 пикселей
Соотношение сторон : 2,40:1
Режим частоты кадров : Постоянный
Частота кадров : 23,976 (24000/1001) кадра/сек
Цветовое пространство : YUV
Субдискретизация насыщенности : 4:2:0
Битовая глубина : 8 бит
Тип развёртки : Прогрессивная
Бит/(Пиксели*Кадры) : 0.264
Размер потока : 7,45 Гбайт (92%)
Библиотека кодирования : x264 core 157 r2935 545de2f
Настройки программы : cabac=1 / ref=5 / deblock=1:-3:-3 / analyse=0x3:0x113 / me=umh / subme=8 / psy=1 / psy_rd=1.00:0.00 / mixed_ref=1 / me_range=16 / chroma_me=1 / trellis=1 / 8x8dct=1 / cqm=0 / deadzone=21,11 / fast_pskip=1 / chroma_qp_offset=-2 / threads=24 / lookahead_threads=4 / sliced_threads=0 / nr=0 / decimate=1 / interlaced=0 / bluray_compat=0 / constrained_intra=0 / bframes=3 / b_pyramid=2 / b_adapt=1 / b_bias=0 / direct=3 / weightb=1 / open_gop=0 / weightp=2 / keyint=250 / keyint_min=23 / scenecut=40 / intra_refresh=0 / rc_lookahead=50 / rc=2pass / mbtree=1 / bitrate=9717 / ratetol=1.0 / qcomp=0.60 / qpmin=0 / qpmax=69 / qpstep=4 / cplxblur=20.0 / qblur=0.5 / ip_ratio=1.40 / aq=1:1.00
Язык : English
Default : Да
Forced : Нет
Аудио #1
Идентификатор : 2
Формат : AC-3
Формат/Информация : Audio Coding 3
Коммерческое название : Dolby Digital
Идентификатор кодека : A_AC3
Продолжительность : 1 ч. 49 м.
Вид битрейта : Постоянный
Битрейт : 192 Кбит/сек
Каналы : 2 канала
Channel layout : L R
Частота : 48,0 КГц
Частота кадров : 31,250 кадров/сек (1536 SPF)
Битовая глубина : 16 бит
Метод сжатия : С потерями
Размер потока : 151 Мбайт (2%)
Язык : Ukrainian
Default : Да
Forced : Нет
Аудио #2
Идентификатор : 3
Формат : AC-3
Формат/Информация : Audio Coding 3
Коммерческое название : Dolby Digital
Идентификатор кодека : A_AC3
Продолжительность : 1 ч. 49 м.
Вид битрейта : Постоянный
Битрейт : 640 Кбит/сек
Каналы : 6 каналов
Channel layout : L R C LFE Ls Rs
Частота : 48,0 КГц
Частота кадров : 31,250 кадров/сек (1536 SPF)
Битовая глубина : 16 бит
Метод сжатия : С потерями
Размер потока : 503 Мбайт (6%)
Язык : English
Default : Нет
Forced : Нет
Текст #1
Идентификатор : 4
Формат : UTF-8
Идентификатор кодека : S_TEXT/UTF8
Идентификатор кодека/Информация : UTF-8 Plain Text
Продолжительность : 1 ч. 4 м.
Битрейт : 7 бит/сек
ElementCount : 91
Размер потока : 3,47 Кбайт (0%)
Язык : Ukrainian
Default : Да
Forced : Да
Текст #2
Идентификатор : 5
Формат : UTF-8
Идентификатор кодека : S_TEXT/UTF8
Идентификатор кодека/Информация : UTF-8 Plain Text
Продолжительность : 1 ч. 4 м.
Битрейт : 4 бит/сек
ElementCount : 91
Размер потока : 1,99 Кбайт (0%)
Заголовок : FORCED
Язык : English
Default : Нет
Forced : Нет
Текст #3
Идентификатор : 6
Формат : UTF-8
Идентификатор кодека : S_TEXT/UTF8
Идентификатор кодека/Информация : UTF-8 Plain Text
Продолжительность : 1 ч. 42 м.
Битрейт : 36 бит/сек
ElementCount : 1034
Размер потока : 27,6 Кбайт (0%)
Заголовок : SRT
Язык : English
Default : Нет
Forced : Нет
Текст #4
Идентификатор : 7
Формат : UTF-8
Идентификатор кодека : S_TEXT/UTF8
Идентификатор кодека/Информация : UTF-8 Plain Text
Продолжительность : 1 ч. 42 м.
Битрейт : 49 бит/сек
ElementCount : 1447
Размер потока : 37,0 Кбайт (0%)
Заголовок : SDH
Язык : English
Default : Нет
Forced : Нет
Меню
00:00:00.000 : en:Chapter 01
00:06:31.099 : en:Chapter 02
00:13:47.493 : en:Chapter 03
00:20:31.313 : en:Chapter 04
00:26:27.795 : en:Chapter 05
00:34:08.964 : en:Chapter 06
00:41:10.593 : en:Chapter 07
00:48:41.377 : en:Chapter 08
00:55:50.889 : en:Chapter 09
01:03:21.464 : en:Chapter 10
01:10:28.599 : en:Chapter 11
01:17:21.887 : en:Chapter 12
01:25:47.601 : en:Chapter 13
01:32:19.159 : en:Chapter 14
01:38:48.464 : en:Chapter 15
01:42:39.195 : en:Chapter 16

Скриншоты

[Profile] [PM]
Display posts from previous:    

The time now is: Today 10:34

All times are GMT



You cannot post new topics in this forum
You cannot reply to topics in this forum
You cannot edit your posts in this forum
You cannot delete your posts in this forum
You cannot vote in polls in this forum
You cannot attach files in this forum
You cannot download files in this forum