Обыкновенный преступник / Ordinary Decent Criminal (2000) BDRip 720p от New-Team | P

 
Автор Сообщение

sergej644 ®

Пол:

Стаж: 4 года 11 месяцев

Сообщений: 6043

Откуда: Soviet Union



Награды: Нет

Торрент-статистика

Создавать темы 19-Окт-2014 14:45

[Цитировать]

--Обыкновенный преступник / Ordinary Decent Criminal
Страна: Великобритания, Германия, Ирландия, США
Производство: Bórd Scannán na hÉireann, Filmstiftung Nordrhein-Westfalen, Icon Entertainmnet International
Жанр: комедия, криминал
Год выпуска: 2000
Продолжительность: 01:34:23
Перевод: Профессиональный (многоголосый, закадровый)
Оригинальная аудиодорожка: английский
Cубтитры: русский
Режиссер: Тадеус О’Салливан / Thaddeus O'Sullivan
В ролях:
Кевин Спейси, Линда Фиорентино, Колин Фаррелл, Питер Муллан, Патрик Малахайд, Стивен Диллейн...
Описание:
Ограбление — это то, что Майкл Линч всегда делает с блеском. Он берет банки один за другим, не оставляя полиции никаких шансов. Копы сбиваются с ног, гоняясь за ним, но не могут добыть ни единой улики! Все знают, что он лидер преступной группы, но засадить его за решетку не удается никому! Линч хитер и изобретателен. Он — гений ограблений. Ему преданы свои и его ненавидят чужие. И Линчу определенно нравится такая жизнь, где он — герой!- -Исходник: BDRemux 1080p
Тип релиза: BDRip 720p
Контейнер: MKV
Видео: 1280x720 (16:9), 23,976 fps, H264 ~ 4027 kbps avg, 0.182 bit/pixel
Аудио: 48 kHz, Dolby Digital AC3 2.0, 192 kbps MVO
Аудио: 48 kHz, Dolby Digital AC3 2.0, 192 kbps Английский
Оригинальная навигация по главам: есть
Субтитры: SoftSub (srt)
Раздача от:

MediaInfo

Общее
Полное имя                               : Obyknovennyy.prestupnik.1999.BDRip720p_[New-team]_by_AVP_Studio.mkv
Формат                                   : Matroska
Версия формата                           : Version 4 / Version 2
Размер файла                             : 2,91 Гбайт
Продолжительность                        : 1 ч. 34 м.
Общий поток                              : 4411 Кбит/сек
Название фильма                          : Obyknovennyy.prestupnik.1999.BDRip720p_[New-team]_by_AVP_Studio
Дата кодирования                         : UTC 2014-09-02 17:30:19
Программа кодирования                    : mkvmerge v7.1.0 ('Good Love') 64bit built on Jul 27 2014 13:06:55
Библиотека кодирования                   : libebml v1.3.0 + libmatroska v1.4.1
DURATION                                 : 01:27:59.390000000
NUMBER_OF_FRAMES                         : 1013
NUMBER_OF_BYTES                          : 77270
_STATISTICS_WRITING_APP                  : mkvmerge v7.1.0 ('Good Love') 64bit built on Jul 27 2014 13:06:55
_STATISTICS_WRITING_DATE_UTC             : 2014-09-02 17:30:19
_STATISTICS_TAGS                         : BPS DURATION NUMBER_OF_FRAMES NUMBER_OF_BYTES
Видео
Идентификатор                            : 1
Формат                                   : AVC
Формат/Информация                        : Advanced Video Codec
Профиль формата                          : High@L4.1
Параметр CABAC формата                   : Да
Параметр ReFrames формата                : 6 кадров
Идентификатор кодека                     : V_MPEG4/ISO/AVC
Продолжительность                        : 1 ч. 34 м.
Битрейт                                  : 4027 Кбит/сек
Ширина                                   : 1280 пикселей
Высота                                   : 720 пикселей
Соотношение сторон                       : 16:9
Режим частоты кадров                     : Постоянный
Частота кадров                           : 23,976 кадра/сек
Цветовое пространство                    : YUV
Субдискретизация насыщенности            : 4:2:0
Битовая глубина                          : 8 бит
Тип развёртки                            : Прогрессивная
Бит/(Пиксели*Кадры)                      : 0.182
Размер потока                            : 2,60 Гбайт (89%)
Заголовок                                : Источник BDRemux
Библиотека кодирования                   : x264 core 138 r2356 a1d3d17
Настройки программы                      : cabac=1 / ref=6 / deblock=1:-3:-3 / analyse=0x3:0x133 / me=umh / subme=10 / psy=1 / psy_rd=1.00:0.05 / mixed_ref=1 / me_range=32 / chroma_me=1 / trellis=2 / 8x8dct=1 / cqm=0 / deadzone=21,11 / fast_pskip=0 / chroma_qp_offset=-3 / threads=6 / lookahead_threads=1 / sliced_threads=0 / nr=0 / decimate=0 / interlaced=0 / bluray_compat=0 / constrained_intra=0 / bframes=8 / b_pyramid=2 / b_adapt=2 / b_bias=0 / direct=3 / weightb=1 / open_gop=0 / weightp=2 / keyint=240 / keyint_min=24 / scenecut=40 / intra_refresh=0 / rc=2pass / mbtree=0 / bitrate=4027 / ratetol=1.0 / qcomp=0.60 / qpmin=0 / qpmax=69 / qpstep=4 / cplxblur=20.0 / qblur=0.5 / ip_ratio=1.40 / pb_ratio=1.30 / aq=1:1.00
Язык                                     : English
Default                                  : Да
Forced                                   : Нет
Аудио #1
Идентификатор                            : 2
Формат                                   : AC-3
Формат/Информация                        : Audio Coding 3
Расширение режима                        : CM (complete main)
Параметр Endianness формата              : Big
Идентификатор кодека                     : A_AC3
Продолжительность                        : 1 ч. 34 м.
Вид битрейта                             : Постоянный
Битрейт                                  : 192 Кбит/сек
Каналы                                   : 2 канала
Расположение каналов                     : Front: L R
Частота                                  : 48,0 КГц
Битовая глубина                          : 16 бит
Метод сжатия                             : С потерями
Размер потока                            : 130 Мбайт (4%)
Заголовок                                : Источник BDRemux Dolby Digital 2,0 192 kbps MVO
Язык                                     : Russian
Default                                  : Да
Forced                                   : Нет
Аудио #2
Идентификатор                            : 3
Формат                                   : AC-3
Формат/Информация                        : Audio Coding 3
Расширение режима                        : CM (complete main)
Параметр Endianness формата              : Big
Идентификатор кодека                     : A_AC3
Продолжительность                        : 1 ч. 34 м.
Вид битрейта                             : Постоянный
Битрейт                                  : 192 Кбит/сек
Каналы                                   : 2 канала
Расположение каналов                     : Front: L R
Частота                                  : 48,0 КГц
Битовая глубина                          : 16 бит
Метод сжатия                             : С потерями
Размер потока                            : 130 Мбайт (4%)
Заголовок                                : Источник BDRemux Dolby Digital 2,0 192 kbps
Язык                                     : English
Default                                  : Нет
Forced                                   : Нет
Текст
Идентификатор                            : 4
Формат                                   : UTF-8
Идентификатор кодека                     : S_TEXT/UTF8
Идентификатор кодека/Информация          : UTF-8 Plain Text
Заголовок                                : Источник BDRemux SoftSub (srt)
Язык                                     : Russian
Default                                  : Нет
Forced                                   : Нет
Меню
00:00:00.000                             : ru: Эпизод 1
00:04:54.502                             : ru: Эпизод 2
00:10:21.578                             : ru: Эпизод 3
00:16:07.091                             : ru: Эпизод 4
00:23:13.767                             : ru: Эпизод 5
00:36:02.368                             : ru: Эпизод 6
00:41:31.322                             : ru: Эпизод 7
00:48:41.418                             : ru: Эпизод 8
00:57:39.789                             : ru: Эпизод 9
01:08:00.493                             : ru: Эпизод 10
01:17:48.497                             : ru: Эпизод 11
01:26:58.838                             : ru: Эпизод 12
01:34:22.573                             : ru: Эпизод 13

Скриншоты

[Профиль] [ЛС]
Кто просматривает тему:

Форум Тема Автор Размер
Фантастика, фэнтези Георгий Лопатин - Попаданец обыкновенный (Магия фэнтези) [Фэнтези; Юмор; Попаданцы, 2013-2015, FB2] Garik014 5 MB
Отечественная Классика Леонид Рудницкий - Бомж. Городской. Обыкновенный (2015) MP3 Swager 549 MB
Отечественные мультфильмы Любовь и смерть картошки обыкновенной (Наталья Марченкова) [1990, Комбинированный мультфильм, SATRip] TorrentFilm 151 MB
Мультфильмы СССР Май-мастеровой, необыкновенная машина и король-вояка (1971) TVRip Белочка 191 MB
Отечественные мультфильмы Необыкновенная охота (Отар Андроникашвили) [1980, мультфильм для взрослых, TeleSynch] TorrentFilm 433 MB
Отечественные мультфильмы Необыкновенное путешествие Серафимы (2015) WEB-DL 720p | iTunes достали все 2.32 GB
Отечественные мультфильмы Необыкновенное путешествие Серафимы (2015) WEB-DLRip | iTunes достали все 1.36 GB
Отечественные мультфильмы Необыкновенные приключения Карика и Вали (Александр Люткевич) [2005, мультфильм, DVDRip-AVC] reversefile 770 MB
Показать сообщения:    

Текущее время: Сегодня 02:24

Часовой пояс: GMT



Вы не можете начинать темы
Вы не можете отвечать на сообщения
Вы не можете редактировать свои сообщения
Вы не можете удалять свои сообщения
Вы не можете голосовать в опросах
Вы не можете прикреплять файлы к сообщениям
Вы не можете скачивать файлы