Обыкновенное сердце / The Normal Heart (Райан Мерфи / Ryan Murphy) [2014, США, Драма, HDTVRip] MVO

 
Автор Сообщение

Создавать темы 14-Июл-2014 09:08

Обыкновенное сердце / The Normal Heart
Страна: США
Жанр: Драма
Год выпуска: 2014
Продолжительность: 02:12:34
Перевод: Профессиональный (многоголосый закадровый)
Cубтитры: нет
Режиссер: Райан Мерфи / Ryan Murphy
В ролях: Тейлор Китч, Джонатан Грофф, Мэтт Бомер, Джулия Робертс, Марк Руффало, Джим Парсонс, Дэнис О’Хэйр, Джо Засо, Финн Уиттрок, Реми Обержене
Описание: По одноименной пьесе Л. Крамера. Начало 1980-х. Нью-йоркский гомосексуальный активист пытается поднять проблему СПИДа.

Сэмпл: http://sendfile.su/984149
Качество видео: HDTVRip
Формат видео: AVI
Видео: 720x400 (1.80:1), 23.976 fps, XviD build 50 ~1439 kbps avg, 0.21 bit/pixel
Аудио: 48 kHz, MPEG Layer 3, 2 ch, ~128.00 kbps avg

MediaInfo

Общее
Полное имя : K:\Obyknovennoe.serdce.2014.P.HDTVRip.1.46Gb.avi
Формат : AVI
Формат/Информация : Audio Video Interleave
Размер файла : 1,46 Гбайт
Продолжительность : 2 ч. 12 м.
Общий поток : 1577 Кбит/сек
Программа кодирования : VirtualDubMod 1.5.10.2 (build 2540/release)
Библиотека кодирования : VirtualDubMod build 2540/release
Видео
Идентификатор : 0
Формат : MPEG-4 Visual
Профиль формата : Advanced Simple@L5
Параметр BVOP формата : 2
Параметр QPel формата : Нет
Параметр GMC формата : Без точки перехода
Параметр матрицы формата : Default (MPEG)
Идентификатор кодека : XVID
Идентификатор кодека/Подсказка : XviD
Продолжительность : 2 ч. 12 м.
Битрейт : 1440 Кбит/сек
Ширина : 720 пикселей
Высота : 400 пикселей
Соотношение сторон : 16:9
Частота кадров : 23,976 кадра/сек
Цветовое пространство : YUV
Субдискретизация насыщенности : 4:2:0
Битовая глубина : 8 бит
Тип развёртки : Прогрессивная
Метод сжатия : С потерями
Бит/(Пиксели*Кадры) : 0.208
Размер потока : 1,33 Гбайт (91%)
Библиотека кодирования : XviD 1.2.1 (UTC 2008-12-04)
Аудио
Идентификатор : 1
Формат : MPEG Audio
Версия формата : Version 1
Профиль формата : Layer 3
Режим : Joint stereo
Расширение режима : MS Stereo
Идентификатор кодека : 55
Идентификатор кодека/Подсказка : MP3
Продолжительность : 2 ч. 12 м.
Вид битрейта : Постоянный
Битрейт : 128 Кбит/сек
Каналы : 2 канала
Частота : 48,0 КГц
Метод сжатия : С потерями
Размер потока : 121 Мбайт (8%)
Выравнивание : Соединение по промежуткам
Продолжительность промежутка : 42 мс. (1,00 видеокадр)
Время предзагрузки промежутка : 504 мс.

Скриншот c названием фильма

Скриншоты

 
Кто просматривает тему:

Форум Тема Автор Размер
Фантастика, фэнтези Георгий Лопатин - Попаданец обыкновенный (Магия фэнтези) [Фэнтези; Юмор; Попаданцы, 2013-2015, FB2] Garik014 5 MB
Отечественная Классика Леонид Рудницкий - Бомж. Городской. Обыкновенный (2015) MP3 Swager 549 MB
Отечественные мультфильмы Любовь и смерть картошки обыкновенной (Наталья Марченкова) [1990, Комбинированный мультфильм, SATRip] TorrentFilm 151 MB
Мультфильмы СССР Май-мастеровой, необыкновенная машина и король-вояка (1971) TVRip Белочка 191 MB
Отечественные мультфильмы Необыкновенная охота (Отар Андроникашвили) [1980, мультфильм для взрослых, TeleSynch] TorrentFilm 433 MB
Отечественные мультфильмы Необыкновенное путешествие Серафимы (2015) WEB-DL 720p | iTunes достали все 2.32 GB
Отечественные мультфильмы Необыкновенное путешествие Серафимы (2015) WEB-DLRip | iTunes достали все 1.36 GB
Отечественные мультфильмы Необыкновенные приключения Карика и Вали (Александр Люткевич) [2005, мультфильм, DVDRip-AVC] reversefile 770 MB
Показать сообщения:    

Текущее время: Сегодня 18:40

Часовой пояс: GMT



Вы не можете начинать темы
Вы не можете отвечать на сообщения
Вы не можете редактировать свои сообщения
Вы не можете удалять свои сообщения
Вы не можете голосовать в опросах
Вы не можете прикреплять файлы к сообщениям
Вы не можете скачивать файлы