Объединение Поньти / Pontypool (Брюс МакДональд / Bruce McDonald) [2008, Канада, ужасы, триллер, BDRip] AVO (Алексеев) + Original Eng

 
Автор Сообщение

TorrentFilm ®

Пол:

Стаж: 2 года

Сообщений: 7741



Награды: Нет

Торрент-статистика

Создавать темы 29-Фев-2016 00:09

[Цитировать]

Объединение Поньти / Pontypool
Страна: Канада
Жанр: ужасы, триллер
Год выпуска: 2008
Продолжительность: 01:36:25
Перевод: Авторский (одноголосый закадровый) - Антон Алексеев
Cубтитры: нет
Оригинальная аудиодорожка: английский

Режиссер: Брюс МакДональд / Bruce McDonald
В ролях: Стивен МакХэтти, Лиза Хоул, Джорджина Рейли, Хрант Альянак, Рик Робертс, Бойд Бэнкс, Тони Барджесс, Рэйчел Барнс, Раффаэль Карниато
Описание: Грант, Сидни и Лорэл-Энн работают в городке Понтипул на небольшой радиостанции, которая располагается в подвале старой церкви. Одним ненастным зимним утром на радио начинают поступать обрывки противоречивой информации о странных событиях, которые творятся в городе. То, что сначала выглядело, как уличные беспорядки, на самом деле оказалось эпидемией вируса, превратившего горожан в обезумевшую толпу. И рано или поздно весь этот ужас доберётся и до их уютного подвала…--Дорожка Алексеева позаимствована из этой раздачи. Большое спасибо за неё Lucian666 !--Качество видео: BDRip
Формат видео: AVI
Видео: 720x304 (2.37:1), 24 fps, XviD build 73 ~1677 kbps avg, 0.32 bit/pixel
Аудио: 48 kHz, AC3 Dolby Digital, 3/2 (L,C,R,l,r) + LFE ch, ~448 kbps - авторский
Аудио: 48 kHz, AC3 Dolby Digital, 3/2 (L,C,R,l,r) + LFE ch, ~448 kbps - английский (отдельно)

Сравнение

http://torrentfilm.net/forum/viewtopic.php?t=2413178
http://torrentfilm.net/forum/viewtopic.php?t=2145021
двухголоска от деревянной парочки

MediaInfo

Общее
Полное имя : H:\Pontypool.2008.bdrip_[1.46]_[teko]\Pontypool.2008.bdrip_[1.46].avi
Формат : AVI
Формат/Информация : Audio Video Interleave
Размер файла : 1,44 Гбайт
Продолжительность : 1 ч. 36 м.
Общий поток : 2134 Кбит/сек
Программа кодирования : VirtualDubMod 1.5.10.3 | www.virtualdub-fr.org || (build 2550/release)
Библиотека кодирования : VirtualDubMod build 2550/release
Видео
Идентификатор : 0
Формат : MPEG-4 Visual
Профиль формата : Advanced Simple@L5
Параметр BVOP формата : 2
Параметр QPel формата : Нет
Параметр GMC формата : Без точки перехода
Параметр матрицы формата : Выборочная
Идентификатор кодека : XVID
Идентификатор кодека/Подсказка : XviD
Продолжительность : 1 ч. 36 м.
Битрейт : 1677 Кбит/сек
Ширина : 720 пикселей
Высота : 304 пикселя
Соотношение сторон : 2,35:1
Частота кадров : 24,000 кадра/сек
Цветовое пространство : YUV
Субдискретизация насыщенности : 4:2:0
Битовая глубина : 8 бит
Тип развёртки : Прогрессивная
Метод сжатия : С потерями
Бит/(Пиксели*Кадры) : 0.319
Размер потока : 1,13 Гбайт (79%)
Библиотека кодирования : XviD 73
Аудио
Идентификатор : 1
Формат : AC-3
Формат/Информация : Audio Coding 3
Расширение режима : CM (complete main)
Параметр Endianness формата : Big
Идентификатор кодека : 2000
Продолжительность : 1 ч. 36 м.
Вид битрейта : Постоянный
Битрейт : 448 Кбит/сек
Каналы : 6 каналов
Расположение каналов : Front: L C R, Side: L R, LFE
Частота : 48,0 КГц
Битовая глубина : 16 бит
Метод сжатия : С потерями
Задержка видео : 28 мс.
Размер потока : 309 Мбайт (21%)
Выравнивание : Разделение по промежуткам
Продолжительность промежутка : 42 мс. (1,00 видеокадр)
Время предзагрузки промежутка : 500 мс.
Релиз группы:
--
[Профиль] [ЛС]

Создавать темы 12-Июн-2016 08:50 (спустя 3 месяца 12 дней)

Топик был перенесен из форума Фильмы 2011 года в форум Фильмы 2006-2008 года
Russian Mafia
 
Показать сообщения:    

Текущее время: Сегодня 12:33

Часовой пояс: GMT



Вы не можете начинать темы
Вы не можете отвечать на сообщения
Вы не можете редактировать свои сообщения
Вы не можете удалять свои сообщения
Вы не можете голосовать в опросах
Вы не можете прикреплять файлы к сообщениям
Вы не можете скачивать файлы