Общество мертвых поэтов / Dead Poets Society (Питер Уир / Peter Weir) [1989, США, драма, BDRip 1080p] DUB+MVO+P2+AVO (Алексей Михалёв)+Sub

 
Автор Сообщение

sergej644 ®

Пол:

Стаж: 4 года 11 месяцев

Сообщений: 6043

Откуда: Soviet Union



Награды: Нет

Торрент-статистика

Создавать темы 03-Июл-2014 18:56

[Цитировать]

-Общество мертвых поэтов / Dead Poets SocietyСлоган: «He was their inspiration. He made their lives extraordinary.»
Год выпуска: 1989
Страна: США
Жанр: драма
Продолжительность: 02:08:44
Перевод:
Профессиональный (полное дублирование)
Профессиональный (многоголосый, закадровый)
Профессиональный (двухголосый, закадровый)
Авторский (одноголосый, закадровый) - Алексей Михалёв
Cубтитры: русские, английские
Оригинальная аудиодорожка: английский

Режиссер: Питер Уир / Peter Weir
Сценарий: Том Шульман / Tom Schulman
Продюсер: Стивен Хафт / Steven Haft, Пол Юнгер Уитт / Paul Junger Witt, Тони Томас / Tony Thomas, Дункан Хендерсон / Duncan Henderson
Оператор: Джон Сил / John Seale
Композитор: Морис Жарр / Maurice Jarre

В ролях:
Робин Уильямс (John Keating), Роберт Шон Леонард (Neil Perry), Этан Хоук (Todd Anderson), Джош Чарльз (Knox Overstreet), Гейл Хэнсен (Charlie Dalton), Дилан Кассман (Richard Cameron), Аллелон Руджеро (Steven Meeks), Джеймс Уотерстон (Gerard Pitts), Норман Ллойд (Mr. Nolan), Кертвуд Смит (Mr. Perry), Карла Белвер (Mrs. Perry), Леон Паунолл (McAllister)
Дублёры: Алексей Золотницкий (John Keating), Дмитрий Филимонов (Todd Anderson), Андрей Бархударов (Knox Overstreet), Сергей Чекан (Charlie Dalton), Александр Рыжков (Richard Cameron), Вячеслав Баранов (Steven Meeks), Андрей Мартынов (Mr. Nolan), Александр Белявский (McAllister), Жанна Никонова, Никита Прозоровский
-
Джон Китинг - новый преподаватель английской словесности в консервативном американском колледже. От чопорной массы учителей его выгодно отличают легкость общения, эксцентричное поведение и пренебрежение к программе обучения.
Однажды он посвящает своих подопечных в тайну Общества мёртвых поэтов. С этого момента каждый из учеников старается обрести свой собственный голос в безликом хоре, взглянуть на окружающий мир, высоко подпрыгнув над серой школьной оградой.
-

Бюджет: $16 400 000
Сборы в США: $95 860 116
Сборы в мире: $235 860 116
Мировая премьера: 2 июня 1989
Релиз на DVD: 21 мая 2009, «n/a»

Знаете ли Вы, что...


Согласно первоначальным планам, режиссёром картины должен был стать Джефф Канев, а главную роль сыграть Лиам Нисон. В качестве других кандидатов на роль профессора Китинга рассматривались также Билл Мюррей и Дастин Хоффман.
Чтобы лучше передать развитие отношений между профессором Китингом и учениками, режиссёр Питер Уир принял решение снять все сцены в хронологическом порядке.
Сюжет фильма в некоторой степени основан на отношениях учеников одной из частных школ в Нэшвилле и профессора Сэмюеля Пикеринга младшего. Для манеры поведения и отдельных черт характера профессора Китинга актёр Робин Уильямс взял за основу своего школьного учителя истории Джона Кэмпбелла.
Режиссёр фильма Питер Уир в юности посещал The Scots College, частную школу для мальчиков в австралийском Сиднее. Школьная форма, строгая дисциплина и общая атмосфера этой школы во многом передались его фильму.
Когда мальчики показывают профессору Китингу его фотографию в старом школьном ежегоднике, на самом деле мы видим настоящую фотографию школьных лет Робина Уильямса, когда он учился в школе Redwood High School в городе Ларкспёр неподалёку от Сан-Франциско.
Все сцены с участием актрисы Лары Флинн Бойл были вырезаны из финальной версии фильма, причём ей об этом было объявлено только в день премьеры.
Съёмки фильма прошли главным образом в частной школе St. Andrew's School, штат Делавэр, и её окрестностях с 14 ноября 1988 года по 15 января 1989 года. Первоначальным вариантом была частная художественная школа Berry College в штате Джорджия, однако слишком тёплый климат оказался неподходящим для зимних сцен, а изготовление массы искусственного снега потянуло бы за собой значительные дополнительные расходы.
Фраза из фильма «Carpe diem. Seize the day, boys. Make your lives extraordinary» («Карпе дием. Ловите момент, мальчики. Сделайте свою жизнь экстраординарной») была поставлена на 95-е место в списке ста самых выдающихся киноцитат Американского института кино.
Автором ставшего крылатым латинского выражения «Carpe diem» был римский поэт Квинт Гораций Флакк, живший с 65 по 8 года до н.э.
По первоначальному варианту сценария профессор Китинг умирал от лейкемии, но режиссёр решил отказаться от этого и сконцентрировать историю вокруг учеников школы.
Качество: BDRip 1080p MySilu
Формат: MKV
Видео кодек: AVC
Аудио кодек: AC-3, DTS
Видео: x264; 1920x1036 (16:9); ~13,1 Mb/s; 23.976 fps


Аудио №1: Russian / AC3 / 2.0 / 48 kHz / 192 kbps | Дубляж |
Аудио №2: Russian / DTS / 5.1 / 48 kHz / 1536 kbps / 24-bit | Многоголосый закадровый |*
Аудио №3: Russian / AC3 / 2.0 / 48 kHz / 192 kbps | Двухголосый закадровый |
Аудио №4: Russian / AC3 / 5.1 / 48 kHz / 384 kbps | А. Михалёв |
Аудио №5: English / DTS / 5.1 / 48 kHz / 1536 kbps / 24-bit
Аудио №6: English / AC3 / 2.0 / 48 kHz / 192 kbps | Commentary with director Peter Weir, cinematographer John Seale and writer Tom Schulman |
Субтитры №1: Russian (forced)
Субтитры №2: Russian (Full, R5)
Субтитры №3: Russian (Full)
Субтитры №4: English (Full, SDH)
Субтитры №5: English (Commentary)

MediaInfo

Общее
Уникальный идентификатор : 208116942463523228870127319426079593415 (0x9C91DD79FA485C6593F6883C13D313C7)
Полное имя : Dead.Poets.Society.1989.1080p.BDRip1080p.mkv
Формат : Matroska
Версия формата : Version 2
Размер файла : 15,2 Гбайт
Продолжительность : 2 ч. 10 м.
Общий поток : 16,7 Мбит/сек
Дата кодирования : UTC 2012-01-08 14:57:29
Программа кодирования : mkvmerge v4.9.1 ('Ich will') сборка от Jul 11 2011 23:53:15
Библиотека кодирования : libebml v1.2.1 + libmatroska v1.1.1
Видео
Идентификатор : 1
Формат : AVC
Формат/Информация : Advanced Video Codec
Профиль формата : High@L4.1
Параметр CABAC формата : Да
Параметр ReFrames формата : 4 кадра
Идентификатор кодека : V_MPEG4/ISO/AVC
Продолжительность : 2 ч. 10 м.
Битрейт : 13,1 Мбит/сек
Ширина : 1920 пикселей
Высота : 1036 пикселей
Соотношение сторон : 1,853
Частота кадров : 23,976 кадра/сек
Цветовое пространство : YUV
Субдискретизация насыщенности : 4:2:0
Битовая глубина : 8 бит
Тип развёртки : Прогрессивная
Бит/(Пиксели*Кадры) : 0.274
Размер потока : 11,4 Гбайт (75%)
Заголовок : Dead.Poets.Society.1989.BluRay.1080p.x264.DTS.AC3.DualAudio-MySilu
Библиотека кодирования : x264 core 120 r2120 0c7dab9
Настройки программы : cabac=1 / ref=4 / deblock=1:-3:-3 / analyse=0x3:0x113 / me=tesa / subme=11 / psy=1 / psy_rd=1.05:0.15 / mixed_ref=1 / me_range=48 / chroma_me=1 / trellis=2 / 8x8dct=1 / cqm=0 / deadzone=21,11 / fast_pskip=0 / chroma_qp_offset=-4 / threads=24 / sliced_threads=0 / nr=0 / decimate=1 / interlaced=0 / bluray_compat=0 / constrained_intra=0 / bframes=8 / b_pyramid=2 / b_adapt=2 / b_bias=0 / direct=3 / weightb=1 / open_gop=0 / weightp=2 / keyint=360 / keyint_min=1 / scenecut=40 / intra_refresh=0 / rc_lookahead=60 / rc=2pass / mbtree=1 / bitrate=13068 / ratetol=1.0 / qcomp=0.60 / qpmin=0 / qpmax=69 / qpstep=4 / cplxblur=20.0 / qblur=0.5 / vbv_maxrate=40000 / vbv_bufsize=30000 / nal_hrd=none / ip_ratio=1.40 / aq=2:0.80
Язык : English
Default : Нет
Forced : Нет
Аудио #1
Идентификатор : 2
Формат : AC-3
Формат/Информация : Audio Coding 3
Расширение режима : CM (complete main)
Идентификатор кодека : A_AC3
Продолжительность : 2 ч. 10 м.
Вид битрейта : Постоянный
Битрейт : 192 Кбит/сек
Каналы : 2 канала
Расположение каналов : Front: L R
Частота : 48,0 КГц
Битовая глубина : 16 бит
Метод сжатия : С потерями
Размер потока : 179 Мбайт (1%)
Заголовок : Дубляж
Язык : Russian
Default : Да
Forced : Нет
Аудио #2
Идентификатор : 3
Формат : DTS
Формат/Информация : Digital Theater Systems
Идентификатор кодека : A_DTS
Продолжительность : 2 ч. 10 м.
Вид битрейта : Постоянный
Битрейт : 1510 Кбит/сек
Каналы : 6 каналов
Расположение каналов : Front: L C R, Side: L R, LFE
Частота : 48,0 КГц
Битовая глубина : 24 бит
Метод сжатия : С потерями
Размер потока : 1,37 Гбайт (9%)
Заголовок : MVO
Язык : Russian
Default : Нет
Forced : Нет
Аудио #3
Идентификатор : 4
Формат : AC-3
Формат/Информация : Audio Coding 3
Расширение режима : CM (complete main)
Идентификатор кодека : A_AC3
Продолжительность : 2 ч. 10 м.
Вид битрейта : Постоянный
Битрейт : 192 Кбит/сек
Каналы : 2 канала
Расположение каналов : Front: L R
Частота : 48,0 КГц
Битовая глубина : 16 бит
Метод сжатия : С потерями
Размер потока : 179 Мбайт (1%)
Заголовок : DVO
Язык : Russian
Default : Нет
Forced : Нет
Аудио #4
Идентификатор : 5
Формат : AC-3
Формат/Информация : Audio Coding 3
Расширение режима : CM (complete main)
Идентификатор кодека : A_AC3
Продолжительность : 2 ч. 10 м.
Вид битрейта : Постоянный
Битрейт : 384 Кбит/сек
Каналы : 6 каналов
Расположение каналов : Front: L C R, Side: L R, LFE
Частота : 48,0 КГц
Битовая глубина : 16 бит
Метод сжатия : С потерями
Размер потока : 357 Мбайт (2%)
Заголовок : AVO Михалев
Язык : Russian
Default : Нет
Forced : Нет
Аудио #5
Идентификатор : 6
Формат : DTS
Формат/Информация : Digital Theater Systems
Идентификатор кодека : A_DTS
Продолжительность : 2 ч. 10 м.
Вид битрейта : Постоянный
Битрейт : 1510 Кбит/сек
Каналы : 6 каналов
Расположение каналов : Front: L C R, Side: L R, LFE
Частота : 48,0 КГц
Битовая глубина : 24 бит
Метод сжатия : С потерями
Размер потока : 1,37 Гбайт (9%)
Заголовок : Original
Язык : English
Default : Нет
Forced : Нет
Текст #1
Идентификатор : 7
Формат : UTF-8
Идентификатор кодека : S_TEXT/UTF8
Идентификатор кодека/Информация : UTF-8 Plain Text
Заголовок : Forced
Язык : Russian
Default : Да
Forced : Нет
Текст #2
Идентификатор : 8
Формат : UTF-8
Идентификатор кодека : S_TEXT/UTF8
Идентификатор кодека/Информация : UTF-8 Plain Text
Заголовок : R5
Язык : Russian
Default : Нет
Forced : Нет
Текст #3
Идентификатор : 9
Формат : UTF-8
Идентификатор кодека : S_TEXT/UTF8
Идентификатор кодека/Информация : UTF-8 Plain Text
Заголовок : SDH
Язык : Russian
Default : Нет
Forced : Нет
Текст #4
Идентификатор : 10
Формат : UTF-8
Идентификатор кодека : S_TEXT/UTF8
Идентификатор кодека/Информация : UTF-8 Plain Text
Заголовок : SDH
Язык : English
Default : Нет
Forced : Нет
Текст #5
Идентификатор : 11
Формат : UTF-8
Идентификатор кодека : S_TEXT/UTF8
Идентификатор кодека/Информация : UTF-8 Plain Text
Заголовок : Commentary
Язык : English
Default : Нет
Forced : Нет
Меню
00:00:00.000 : :Opening Titles / A New Semester
00:11:17.635 : :Seize The Day
00:21:03.637 : :Understanding Poetry
00:36:09.501 : :The Reconvening Of The Dead Poets Society
00:42:59.118 : :A Different Perspective
00:50:28.442 : :Chances
01:03:38.189 : :Find Your Own Walk
01:11:33.414 : :Unorthodox Ideas
01:23:53.153 : :Neils's Dream
02:00:07.575 : :"Oh Captain, My Captain" / End Credits
-

Скриншоты

-- --
[Профиль] [ЛС]
Кто просматривает тему:

Форум Тема Автор Размер
Viasat History Viasat History: История тайных обществ (На тёмной стороне) / Inside Secret Societies (Secrets Of The Underworld) [сезон 1 серии 1-6 из 6] (Брюс Бюргесс / Bruce Burgess) [2016 г., Документальный,... skorpionN 3.81 GB
Viasat History Viasat History: Тайные общества / Secret Societies [s01] (2013) HDTVRip 720p sergej644 3.44 GB
Программы [Утилиты] Avenue (Авеню общественный транспорт) v1.8.2 [Android 2.3.6+, RUS + ENG] TorrentFilm 3 MB
Фильмы 2016 года Бойня в сестринстве / Женское общество. Скотобойня / Sorority Slaughterhouse (2016) HDRip| L1 достали все 1.46 GB
Телепередачи Воскресный вечер с Владимиром Соловьевым [17.08.2014, общественно-политический, DVB] sergej644 1.74 GB
Зарубежные сериалы Общественная мораль / Public Morals [S01] (2015) WEB-DL 720p | NewStudio Russian Mafia 14.01 GB
Зарубежные сериалы Общественная мораль / Public Morals [S01] (2015) WEB-DLRip | NewStudio Russian Mafia 5.26 GB
Приключения, Квесты, Логические Общество Курион: Затмение над Мессиной. Коллекционное издание (2015) PC достали все 1.42 GB
Показать сообщения:    

Текущее время: Сегодня 18:38

Часовой пояс: GMT



Вы не можете начинать темы
Вы не можете отвечать на сообщения
Вы не можете редактировать свои сообщения
Вы не можете удалять свои сообщения
Вы не можете голосовать в опросах
Вы не можете прикреплять файлы к сообщениям
Вы не можете скачивать файлы