Общак / The Drop (2014) BDRip 1080p от NNNB | D, A

 
Автор Сообщение

sergej644 ®

Пол:

Стаж: 4 года 11 месяцев

Сообщений: 6041

Откуда: Soviet Union



Награды: Нет

Торрент-статистика

Создавать темы 19-Янв-2015 23:51

[Цитировать]

Общак / The Drop
Русское название: Общак
Оригинальное название: The Drop
Год выпуска: 2014
Жанр: драма, криминал
Выпущено: США
Режиссер: Михаэль Р. Роскам
В ролях: Том Харди , Нуми Рапас , Джеймс Гандольфини , Маттиас Шонартс , Джон Ортис , Элизабет Родригес , Майкл Аронов , Морган Спектор , Майкл Эспер , Росс Бикелл , Джеймс Фрешвилл , Тобиаш Сигал
Перевод: Дублированный - [Лицензия], Авторский (одноголосый)

Сюжет фильма:
Боб Сагиновски оказывается в центре ограбления, из-за расследования которого может всплыть прошлое района, когда друзья, семьи и заклятые враги - все работали вместе, чтобы выжить...

Этот фильм стал последним в жизни Джеймса Гандольфини
Качество: BDRip 1080p (исходник Blu-ray)
Формат: AVC (библиотека кодирования x.264)
Контейнер (Расширение): MKV
Видео: 1920x800 (2.40:1), 9375 Кбит/сек, 23,976 кадр/сек, 0,255 Бит/[Пиксели*Кадры]
Аудио №1: русский / AC3 / 5.1 / 48 kHz / 640 kbps / |Дублированный - [Лицензия]|
Аудио №2: русский / AC3 / 5.1 / 48 kHz / 640 kbps / |Авторский (Д.Есарев)|
Аудио №3: английский / AC3 / 5.1 / 48 kHz / 640 kbps /
Субтитры: русские (Full), украинские (Full), английские (Full)
Навигация по главам(Чаптеры): есть
Продолжительность: 01:46:44
В переводе Д.Есарев присутствует ненормативная лексика

MediaInfo

Format : Matroska
Format version : Version 2
File size : 8.42 GiB
Duration : 1h 46mn
Overall bit rate : 11.3 Mbps
Movie name : Obshhak.(2014).BDRip.1080p.[denis100]
Encoded date : UTC 2015-01-19 07:50:03
Writing application : mkvmerge v5.8.0 ('No Sleep / Pillow') built on Sep 2 2012 15:37:04
Writing library : libebml v1.2.3 + libmatroska v1.3.0
Video
ID : 1
Format : AVC
Format/Info : Advanced Video Codec
Format profile : High@L4.1
Format settings, CABAC : Yes
Format settings, ReFrames : 5 frames
Codec ID : V_MPEG4/ISO/AVC
Duration : 1h 46mn
Bit rate : 9 375 Kbps
Width : 1 920 pixels
Height : 800 pixels
Display aspect ratio : 2.40:1
Frame rate : 23.976 fps
Color space : YUV
Chroma subsampling : 4:2:0
Bit depth : 8 bits
Scan type : Progressive
Bits/(Pixel*Frame) : 0.255
Stream size : 6.82 GiB (81%)
Title : Obshhak.(2014).BDRip.1080p.[denis100]
Writing library : x264 core 142 r2491 24e4fed
Encoding settings : cabac=1 / ref=5 / deblock=1:-3:-3 / analyse=0x3:0x133 / me=umh / subme=11 / psy=1 / psy_rd=1.00:0.00 / mixed_ref=1 / me_range=32 / chroma_me=1 / trellis=2 / 8x8dct=1 / cqm=0 / deadzone=21,11 / fast_pskip=0 / chroma_qp_offset=-2 / threads=6 / lookahead_threads=1 / sliced_threads=0 / nr=0 / decimate=1 / interlaced=0 / bluray_compat=0 / constrained_intra=0 / bframes=9 / b_pyramid=2 / b_adapt=2 / b_bias=0 / direct=3 / weightb=1 / open_gop=0 / weightp=2 / keyint=240 / keyint_min=23 / scenecut=40 / intra_refresh=0 / rc=2pass / mbtree=0 / bitrate=9375 / ratetol=1.0 / qcomp=0.60 / qpmin=0 / qpmax=69 / qpstep=4 / cplxblur=20.0 / qblur=0.5 / ip_ratio=1.40 / pb_ratio=1.30 / aq=1:0.90
Language : English
Default : Yes
Forced : No
Audio #1
ID : 2
Format : AC-3
Format/Info : Audio Coding 3
Mode extension : CM (complete main)
Codec ID : A_AC3
Duration : 1h 46mn
Bit rate mode : Constant
Bit rate : 640 Kbps
Channel(s) : 6 channels
Channel positions : Front: L C R, Side: L R, LFE
Sampling rate : 48.0 KHz
Bit depth : 16 bits
Compression mode : Lossy
Stream size : 489 MiB (6%)
Title : Дублированный
Language : Russian
Default : Yes
Forced : No
Audio #2
ID : 3
Format : AC-3
Format/Info : Audio Coding 3
Mode extension : CM (complete main)
Codec ID : A_AC3
Duration : 1h 46mn
Bit rate mode : Constant
Bit rate : 640 Kbps
Channel(s) : 6 channels
Channel positions : Front: L C R, Side: L R, LFE
Sampling rate : 48.0 KHz
Bit depth : 16 bits
Compression mode : Lossy
Stream size : 489 MiB (6%)
Title : Авторский (Д.Есарев)
Language : Russian
Default : No
Forced : No
Audio #3
ID : 4
Format : AC-3
Format/Info : Audio Coding 3
Mode extension : CM (complete main)
Codec ID : A_AC3
Duration : 1h 46mn
Bit rate mode : Constant
Bit rate : 640 Kbps
Channel(s) : 6 channels
Channel positions : Front: L C R, Side: L R, LFE
Sampling rate : 48.0 KHz
Bit depth : 16 bits
Compression mode : Lossy
Stream size : 489 MiB (6%)
Title : English
Language : English
Default : No
Forced : No
Text #1
ID : 5
Format : UTF-8
Codec ID : S_TEXT/UTF8
Codec ID/Info : UTF-8 Plain Text
Title : Full
Language : Russian
Default : No
Forced : No
Text #2
ID : 6
Format : UTF-8
Codec ID : S_TEXT/UTF8
Codec ID/Info : UTF-8 Plain Text
Title : Full
Language : Ukrainian
Default : No
Forced : No
Text #3
ID : 7
Format : UTF-8
Codec ID : S_TEXT/UTF8
Codec ID/Info : UTF-8 Plain Text
Title : Full
Language : English
Default : No
Forced : No
Menu
00:00:00.000 : en:Chapter 01
00:02:25.353 : en:Chapter 02
00:05:59.858 : en:Chapter 03
00:08:09.154 : en:Chapter 04
00:11:34.777 : en:Chapter 05
00:13:48.744 : en:Chapter 06
00:17:28.922 : en:Chapter 07
00:21:37.211 : en:Chapter 08
00:25:40.829 : en:Chapter 09
00:27:53.462 : en:Chapter 10
00:32:02.336 : en:Chapter 11
00:36:19.551 : en:Chapter 12
00:38:15.751 : en:Chapter 13
00:40:35.140 : en:Chapter 14
00:44:05.475 : en:Chapter 15
00:46:47.470 : en:Chapter 16
00:48:42.710 : en:Chapter 17
00:52:50.582 : en:Chapter 18
00:56:28.175 : en:Chapter 19
01:01:40.530 : en:Chapter 20
01:05:43.104 : en:Chapter 21
01:07:36.802 : en:Chapter 22
01:11:13.519 : en:Chapter 23
01:12:32.597 : en:Chapter 24
01:15:09.505 : en:Chapter 25
01:21:11.740 : en:Chapter 26
01:24:10.086 : en:Chapter 27
01:28:27.260 : en:Chapter 28
01:30:51.404 : en:Chapter 29
01:34:54.479 : en:Chapter 30
01:39:00.893 : en:Chapter 31
01:41:16.235 : en:Chapter 32
01:46:43.771 : en:Chapter 33

x264

x264 [info]: frame I:1117 Avg QP:13.97 size:316323
x264 [info]: frame P:31534 Avg QP:16.09 size: 87933
x264 [info]: frame B:120892 Avg QP:18.10 size: 36166

Скриншоты

[Профиль] [ЛС]
Показать сообщения:    

Текущее время: Сегодня 12:49

Часовой пояс: GMT



Вы не можете начинать темы
Вы не можете отвечать на сообщения
Вы не можете редактировать свои сообщения
Вы не можете удалять свои сообщения
Вы не можете голосовать в опросах
Вы не можете прикреплять файлы к сообщениям
Вы не можете скачивать файлы