Общак / The Drop (Михаэль Р. Роскам / Michael R. Roskam) [2014, США, Драма, криминал, BDRip-AVC] Dub + Sub Rus

 
Автор Сообщение

TorrentFilm ®

Пол:

Стаж: 2 года

Сообщений: 7741



Награды: Нет

Торрент-статистика

Создавать темы 04-Янв-2015 00:01

[Цитировать]

Общак / The Drop- - Страна: США / Fox Searchlight Pictures, Chernin Entertainment
Жанр: Драма, криминал
Год выпуска: 2014
Продолжительность: 01:46:34
Перевод: Профессиональный (полное дублирование) iTunes
Cубтитры: Русские, английские (Full + SDH + SDH-Colored)
Оригинальная аудиодорожка: Нет
Навигация по главам: Есть-Режиссер: Михаэль Р. Роскам / Michaël R. Roskam-В ролях: Том Харди (Bob), Нуми Рапас (Nadia), Джеймс Гандольфини (Cousin Marv), Маттиас Шонартс (Eric Deeds), Джон Ортис (Detective Torres), Элизабет Родригес (Detective Romsey), Майкл Аронов (Chovka), Морган Спектор (Andre), Майкл Эспер (Rardy), Росс Бикелл (Father Regan), Джеймс Фрешвилл (Fitz), Тобиаш Сигал (Briele), Патриция Сквайр (Millie), Энн Дауд (Dottie), Крис Салливан (Jimmy)-Описание: Боб Сагиновски оказывается в центре ограбления, из-за расследования которого может всплыть прошлое района, когда друзья, семьи и заклятые враги — все работали вместе, чтобы выжить…-| IMDB | КиноПоиск | Сэмпл |-Премьера (мир): 5 сентября 2014
Премьера (РФ): 30 октября 2014 «Двадцатый Век Фокс СНГ»
Релиз на Blu-Ray: 22 января 2015 «Двадцатый Век Фокс СНГ»
Релиз на DVD: 22 января 2015 «Двадцатый Век Фокс СНГ»-Качество видео: BDRip (исходник Blu-ray)
Формат видео: MKV
Видео: х.264, 960x400 (2,40:1), 23,976 fps, 1578 kbps, 0.171 bit/pixel
Аудио: 48 kHz, AC3 Dolby Digital, 3/2 (L,C,R,l,r) + LFE ch, 384.00 kbps |Rus| iTunes-Релиз группы: HELLYWOOD
Автор рипа: potroks

MediaInfo

General
Unique ID : 246034697359107802528356387530162889790 (0xB9188F213115928E8BC58D369C3CE43E)
Complete name : D:\FILMS\Obschak.2014.RUS.BDRip.x264.-HELLYWOOD.mkv
Format : Matroska
Format version : Version 4 / Version 2
File size : 1.46 GiB
Duration : 1h 46mn
Overall bit rate : 1 964 Kbps
Movie name : The Drop (2014) - HELLYWOOD
Encoded date : UTC 2015-01-02 08:10:06
Writing application : mkvmerge v5.9.0 ('On The Loose') built on Dec 15 2012 16:39:58
Writing library : libebml v1.3.0 + libmatroska v1.4.0
Video
ID : 1
Format : AVC
Format/Info : Advanced Video Codec
Format profile : High@L4.1
Format settings, CABAC : Yes
Format settings, ReFrames : 12 frames
Codec ID : V_MPEG4/ISO/AVC
Duration : 1h 46mn
Bit rate : 1 578 Kbps
Width : 960 pixels
Height : 400 pixels
Display aspect ratio : 2.40:1
Frame rate mode : Constant
Frame rate : 23.976 fps
Color space : YUV
Chroma subsampling : 4:2:0
Bit depth : 8 bits
Scan type : Progressive
Bits/(Pixel*Frame) : 0.171
Stream size : 1.15 GiB (78%)
Title : potroks
Writing library : x264 core 130 r2273 b3065e6
Encoding settings : cabac=1 / ref=12 / deblock=1:-2:-2 / analyse=0x3:0x133 / me=umh / subme=11 / psy=1 / psy_rd=1.05:0.06 / mixed_ref=1 / me_range=48 / chroma_me=1 / trellis=2 / 8x8dct=1 / cqm=0 / deadzone=21,11 / fast_pskip=0 / chroma_qp_offset=-3 / threads=9 / lookahead_threads=6 / sliced_threads=0 / nr=0 / decimate=0 / interlaced=0 / bluray_compat=0 / constrained_intra=0 / bframes=13 / b_pyramid=2 / b_adapt=2 / b_bias=0 / direct=3 / weightb=1 / open_gop=0 / weightp=2 / keyint=250 / keyint_min=23 / scenecut=40 / intra_refresh=0 / rc_lookahead=60 / rc=2pass / mbtree=0 / bitrate=1578 / ratetol=1.0 / qcomp=0.70 / qpmin=0 / qpmax=69 / qpstep=4 / cplxblur=20.0 / qblur=0.5 / vbv_maxrate=50000 / vbv_bufsize=62500 / nal_hrd=none / ip_ratio=1.35 / pb_ratio=1.25 / aq=1:0.80
Language : English
Default : Yes
Forced : No
Audio
ID : 2
Format : AC-3
Format/Info : Audio Coding 3
Mode extension : CM (complete main)
Format settings, Endianness : Big
Codec ID : A_AC3
Duration : 1h 46mn
Bit rate mode : Constant
Bit rate : 384 Kbps
Channel(s) : 6 channels
Channel positions : Front: L C R, Side: L R, LFE
Sampling rate : 48.0 KHz
Bit depth : 16 bits
Compression mode : Lossy
Stream size : 293 MiB (20%)
Title : Dub | DD 5.1 @ 384 kbps - iTunes
Language : Russian
Default : Yes
Forced : No
Text #1
ID : 3
Format : UTF-8
Codec ID : S_TEXT/UTF8
Codec ID/Info : UTF-8 Plain Text
Language : Russian
Default : No
Forced : No
Text #2
ID : 4
Format : UTF-8
Codec ID : S_TEXT/UTF8
Codec ID/Info : UTF-8 Plain Text
Title : Full
Language : English
Default : No
Forced : No
Text #3
ID : 5
Format : UTF-8
Codec ID : S_TEXT/UTF8
Codec ID/Info : UTF-8 Plain Text
Title : SDH
Language : English
Default : No
Forced : No
Text #4
ID : 6
Format : UTF-8
Codec ID : S_TEXT/UTF8
Codec ID/Info : UTF-8 Plain Text
Title : SDH-Colored
Language : English
Default : No
Forced : No
Menu
00:00:00.000 : en:(01)00:00:00:000
00:02:25.353 : en:(02)00:02:25:353
00:05:59.858 : en:(03)00:05:59:858
00:08:09.154 : en:(04)00:08:09:154
00:11:34.777 : en:(05)00:11:34:777
00:13:48.744 : en:(06)00:13:48:744
00:17:28.922 : en:(07)00:17:28:922
00:21:37.211 : en:(08)00:21:37:211
00:25:40.829 : en:(09)00:25:40:829
00:27:53.462 : en:(10)00:27:53:462
00:32:02.336 : en:(11)00:32:02:336
00:36:19.552 : en:(12)00:36:19:552
00:38:15.751 : en:(13)00:38:15:751
00:40:35.141 : en:(14)00:40:35:141
00:44:05.476 : en:(15)00:44:05:476
00:46:47.471 : en:(16)00:46:47:471
00:48:42.710 : en:(17)00:48:42:710
00:52:50.583 : en:(18)00:52:50:583
00:56:28.175 : en:(19)00:56:28:175
01:01:40.530 : en:(20)01:01:40:530
01:05:43.105 : en:(21)01:05:43:105
01:07:36.802 : en:(22)01:07:36:802
01:11:13.519 : en:(23)01:11:13:519
01:12:32.597 : en:(24)01:12:32:597
01:15:09.505 : en:(25)01:15:09:505
01:21:11.740 : en:(26)01:21:11:740
01:24:10.086 : en:(27)01:24:10:086
01:28:27.260 : en:(28)01:28:27:260
01:30:51.404 : en:(29)01:30:51:404
01:34:54.479 : en:(30)01:34:54:479
01:39:00.893 : en:(31)01:39:00:893
01:41:16.235 : en:(32)01:41:16:235
01:46:43.771 : en:(33)01:46:43:771

Интересные факты

• Экранизация рассказа американского сценариста Дэнниса Лихейна.
• Это первый англоязычный фильм режиссёра Михаэля Р. Роскама.
• Первоначально на должность режиссёра фильма взяли Нила Бёргера, но он покинул проект, чтобы заняться режиссурой фильма «Дивергент» (2014).
• Изначально название фильма звучало как «Спасение животных» (Animal Rescue), но в январе 2014 было изменено на «Общак» (The Drop).
• Роль Рокко исполняли три разные собаки, чтобы в фильме собака росла постепенно.

Скриншот c названием фильма

[Профиль] [ЛС]
Показать сообщения:    

Текущее время: Сегодня 11:08

Часовой пояс: GMT



Вы не можете начинать темы
Вы не можете отвечать на сообщения
Вы не можете редактировать свои сообщения
Вы не можете удалять свои сообщения
Вы не можете голосовать в опросах
Вы не можете прикреплять файлы к сообщениям
Вы не можете скачивать файлы