Общага / Alpha House (Джейкоб Куни / Jacob Cooney) [2014, США, комедия, HDRip] VO (Andi)

 
Автор Сообщение

TorrentFilm ®

Пол:

Стаж: 2 года

Сообщений: 7741



Награды: Нет

Торрент-статистика

Создавать темы 31-Дек-2014 00:01

[Цитировать]

Общага / Alpha House
Страна: США
Жанр: комедия
Год выпуска: 2014
Продолжительность: 01:28:33
Перевод: Одноголосый закадровый Andi по переводу М. Васильевa
Cубтитры: нет
Оригинальная аудиодорожка: нет
Режиссер: Джейкоб Куни / Jacob Cooney
В ролях: Джулиан Бенсиммонс, Хезер Пейдж Кон, Крис О Брайен, Джин Луиз О’Салливан, Сэм Отаки
Описание: Когда руководство университета решает избавиться от одного из самых диких и шумных студенческих братств, оно принимает радикальное решение: открыть в братство доступ для студенток-отличниц, чтобы они своим примером перевоспитывали двоечников.
Сэмпл: http://multi-up.com/1022812
Качество видео: HDRip
Формат видео: AVI
Видео: 720x400 (1.80:1), 23.976 fps, XviD build 73 ~1985 kbps avg, 0.29 bit/pixel
Аудио: 48 kHz, AC3 Dolby Digital, 2/0 (L,R) ch, ~224 kbps

MediaInfo

General
Complete name : C:\Users\Вика\Desktop\Alphа.Hоuse.2014.HDRIp.avi
Format : AVI
Format/Info : Audio Video Interleave
File size : 1.37 GiB
Duration : 1h 28mn
Overall bit rate : 2 219 Kbps
Writing application : VirtualDubModRus 1.5.10.2 (build 2542/release)
Writing library : VirtualDubMod build 2542/release
Video
ID : 0
Format : MPEG-4 Visual
Format profile : Advanced Simple@L5
Format settings, BVOP : 1
Format settings, QPel : No
Format settings, GMC : No warppoints
Format settings, Matrix : Custom
Codec ID : XVID
Codec ID/Hint : XviD
Duration : 1h 28mn
Bit rate : 1 985 Kbps
Width : 720 pixels
Height : 400 pixels
Display aspect ratio : 16:9
Frame rate : 23.976 fps
Color space : YUV
Chroma subsampling : 4:2:0
Bit depth : 8 bits
Scan type : Progressive
Compression mode : Lossy
Bits/(Pixel*Frame) : 0.288
Stream size : 1.23 GiB (89%)
Writing library : XviD 73
Audio
ID : 1
Format : AC-3
Format/Info : Audio Coding 3
Mode extension : CM (complete main)
Format settings, Endianness : Big
Codec ID : 2000
Duration : 1h 28mn
Bit rate mode : Constant
Bit rate : 224 Kbps
Channel(s) : 2 channels
Channel positions : Front: L R
Sampling rate : 48.0 KHz
Bit depth : 16 bits
Compression mode : Lossy
Stream size : 142 MiB (10%)
Alignment : Split accross interleaves
Interleave, duration : 42 ms (1.00 video frame)
Interleave, preload duration : 500 ms

Скриншот c названием фильма

Скриншоты

[Профиль] [ЛС]
Кто просматривает тему:

Форум Тема Автор Размер
Фильмы 2011 года Переполох в общаге 2: Семестр на море / Dorm Daze 2 (Дэвид Хилленбрэнд / David Hillenbrand, Скотт Хилленбрэнд / Scott Hillenbrand) [2006 г., США, комедия, BDRip] Dub + AVO (Гранкин) painkiller 1.59 GB
Фильмы 2011 года Переполох в общаге 2: Семестр на море / Dorm Daze 2 (Дэвид Хилленбрэнд / David Hillenbrand, Скотт Хилленбрэнд / Scott Hillenbrand) [2006 г., США, комедия, BDRip] Dub + DVO painkiller 837 MB
Фильмы 2011 года Переполох в общаге 2: Семестр на море / Dorm Daze 2 (Дэвид Хилленбрэнд / David Hillenbrand, Скотт Хилленбрэнд / Scott Hillenbrand) [2006, США, комедия, BDRip-AVC] [Unrated] Dub painkiller 743 MB
R.G.TorrentFilm Video Универ. Новая общага (8 сезон 1-20 серии из 20) (Константин Смирнов) [2015 г., Ситком, комедия, WebRip] AleksSin 6.23 GB
Видео для КПК и Смартфонов Универ. Новая общага [09x01-20 из 20] (2015) WEB-DLRip | КПК достали все 1.87 GB
Отечественные cериалы Универ. Новая общага [09x01-20 серии] (2015) SATRip достали все 6.54 GB
Отечественные cериалы Универ. Новая общага [S01-10] (2011-2015) SATRip достали все 61.13 GB
Отечественные cериалы Универ. Новая общага [S11] (2016) SATRip от Files-x Russian Mafia 5.93 GB
Показать сообщения:    

Текущее время: Сегодня 20:43

Часовой пояс: GMT



Вы не можете начинать темы
Вы не можете отвечать на сообщения
Вы не можете редактировать свои сообщения
Вы не можете удалять свои сообщения
Вы не можете голосовать в опросах
Вы не можете прикреплять файлы к сообщениям
Вы не можете скачивать файлы