Обратный билет (Александр Кананович) [2012, Россия, мелодрама, HDTV 1080i]

 
Автор Сообщение

TorrentFilm ®

Пол:

Стаж: 1 год 11 месяцев

Сообщений: 7741



Награды: Нет

Торрент-статистика

Создавать темы 01-Янв-2016 00:11

[Цитировать]

Обратный билет
Жанр: мелодрама
Год выпуска: 2012
Продолжительность: 01:29:30
Режиссёр: Александр Кананович
В ролях: Елена Подкаминская, Андрей Биланов, Константин Константинов, Ольга Гагарина, Нелли Неведина, Катя Подлесная, Дионисий Толоконников, Ольга Мукукенова, Максим Важов, Олег Масленников, Александр Аноприков, Лариса Домаскина, Елена Доронина, Мария Голицына, Ирина Дитц, Анна Гришина
Описание: Мария возвращается в город, где живет ее семья, ее друзья - те, кого она любит больше жизни, те, с которыми она была разлучена на долгие шесть лет. Мария была осуждена за убийство. Маленький городок, где все знают друг друга, до сих пор в недоумении: как молодая женщина могла убить своего мужа? Только сама Мария знает правду и цену этого трагического события из прошлого. Долгожданное возвращение домой становится для нее настоящим испытанием...
Доп. информация: Файл чистый. Без посторонних надписей. Выкладывается, как есть.
Релиз -
Семпл: http://multi-up.com/823253
Качество видео: HDTV 1080i
Формат видео: MPEG-TS
Видео: AVC, 1920x1080 (16:9), 25 fps, 7655 Kbps, 0.148 bit/pixel
Аудио: MPEG Audio, 48 kHz, stereo, 192 kbps

MI

ID : 1 (0x1)
Complete name : Обратный билет (2012, Россия, Мелодрама, HDTV) (MYDIMKA).ts
Format : MPEG-TS
File size : 5.27 GiB
Duration : 1h 29mn
Overall bit rate mode : Variable
Overall bit rate : 8 432 Kbps
Video
ID : 2911 (0xB5F)
Menu ID : 1 (0x1)
Format : AVC
Format/Info : Advanced Video Codec
Format profile : High@L4.0
Format settings, CABAC : Yes
Format settings, ReFrames : 4 frames
Codec ID : 27
Duration : 1h 29mn
Bit rate : 7 821 Kbps
Width : 1 920 pixels
Height : 1 080 pixels
Display aspect ratio : 16:9
Frame rate : 25.000 fps
Color space : YUV
Chroma subsampling : 4:2:0
Bit depth : 8 bits
Scan type : MBAFF
Bits/(Pixel*Frame) : 0.151
Stream size : 4.89 GiB (93%)
Audio
ID : 2912 (0xB60)
Menu ID : 1 (0x1)
Format : MPEG Audio
Format version : Version 1
Format profile : Layer 2
Codec ID : 3
Duration : 1h 29mn
Bit rate mode : Constant
Bit rate : 192 Kbps
Channel(s) : 2 channels
Sampling rate : 48.0 KHz
Compression mode : Lossy
Stream size : 123 MiB (2%)
Language : Russian

Скриншот c названием фильма

Скриншоты


[Профиль] [ЛС]
Показать сообщения:    

Текущее время: Сегодня 13:55

Часовой пояс: GMT



Вы не можете начинать темы
Вы не можете отвечать на сообщения
Вы не можете редактировать свои сообщения
Вы не можете удалять свои сообщения
Вы не можете голосовать в опросах
Вы не можете прикреплять файлы к сообщениям
Вы не можете скачивать файлы