Обратной дороги нет (Григорий Липшиц) [1970, военный, DVDRip]

 
Автор Сообщение

reversefile ®

Пол:

Стаж: 4 года 5 месяцев

Сообщений: 842

Откуда: ReverseFile.org



Награды: Нет

Торрент-статистика

Создавать темы 11-Авг-2014 06:20

[Цитировать]

Обратной дороги нет (3 серии)
Жанр: Военный
Год выпуска: 1970
Продолжительность: 03:18:20
Режиссёр: Григорий Липшиц
Сценарий: Игорь Болгарин, Виктор Смирнов
Композитор: Геннадий Гладков
В ролях: Николай Олялин, Александр Январев, Алексей Чернов, Игорь Ясулович, Николай Мерзликин, Галина Польских, Лев Лемке, Валерий Малышев, Борис Юрченко, Владимир Олексеенко, Владимир Волков, Федор Ищенко, Лидия Комарецкая, Неонила Гнепольская, Иван Матвеев
Описание: Великая Отечественная война. После организованного побега из концлагеря (зная, что расстреляют каждого десятого из оставшихся) майор Топорков пробирается в партизанский отряд для организации доставки оружия бежавшим заключенным. Чтобы отвести внимание немецких поисковых групп от основного обоза, а самое главное, определить предателя, в партизанском отряде создается дополнительный обоз, который отправляется в путь, откуда обратной дороги нет...
Доп. информация: Данный рип 3-х-серийного фильма сделан одним файлом

Формат видео: AVI
Качество видео: DVDRip (DVD9)
Видео кодек: XviD
Аудио кодек: MP3
Видео: XviD, 624x480, 25fps, 909kbps
Аудио: MPEG Layer 3, 48000Hz, 128kbps, stereo

MediaInfo

General
Complete name : Obratnoi.Dorogi.Net.1970.O.DVDRip.1400.MediaClub.CurHaJI
Format : AVI
Format/Info : Audio Video Interleave
File size : 1.45 GiB
Duration : 3h 18mn
Overall bit rate : 1 047 Kbps
Writing application : VirtualDubMod 1.5.10.3 | www.virtualdub-fr.org || (build 2550/release)
Writing library : VirtualDub build 35491/release
Video
ID : 0
Format : MPEG-4 Visual
Format profile : Advanced Simple@L5
Format settings, BVOP : 2
Format settings, QPel : No
Format settings, GMC : No warppoints
Format settings, Matrix : Custom
Codec ID : XVID
Codec ID/Hint : XviD
Duration : 3h 18mn
Bit rate : 909 Kbps
Width : 624 pixels
Height : 480 pixels
Display aspect ratio : 4:3
Frame rate : 25.000 fps
Color space : YUV
Chroma subsampling : 4:2:0
Bit depth : 8 bits
Scan type : Progressive
Compression mode : Lossy
Bits/(Pixel*Frame) : 0.121
Stream size : 1.26 GiB (87%)
Writing library : XviD 1.2.1 (UTC 2008-12-04)
Audio
ID : 1
Format : MPEG Audio
Format version : Version 1
Format profile : Layer 3
Codec ID : 55
Codec ID/Hint : MP3
Duration : 3h 18mn
Bit rate mode : Constant
Bit rate : 128 Kbps
Channel(s) : 2 channels
Sampling rate : 48.0 KHz
Compression mode : Lossy
Stream size : 182 MiB (12%)
Alignment : Aligned on interleaves
Interleave, duration : 40 ms (1.00 video frame)
Interleave, preload duration : 504 ms
Writing library : L3.99r
Encoding settings : -m s -V 4 -q 2 -lowpass 17 -b 128

Скриншоты

[Профиль] [ЛС]

Создавать темы 06-Авг-2015 22:04 (спустя 11 месяцев 26 дней)

Топик был перенесен из форума Кино СССР в форум Кино СССР
sergej644
 
Кто просматривает тему:

Форум Тема Автор Размер
Фильмы (HD Rips | 720p, 1080p) 6:42 / Обратный отсчёт / Countdown (2016) BDRip 720p | L Russian Mafia 4.12 GB
Зарубежные мультфильмы В ад и обратно / Hell and Back (2015) DVDRip | SinisterSound достали все 919 MB
Фильмы (HD Rips | 720p, 1080p) Необратимость / Irreversible (2002) BDRip 1080p | P2 sergej644 7.04 GB
Фильмы (HD Rips | 720p, 1080p) Необратимость / Irreversible (2002) BDRip 720p | P2 Russian Mafia 4.61 GB
Фильмы 2011 года Необратимость / Irreversible (2002) HDRip | P2 Russian Mafia 1.45 GB
Фильмы 2011 года Обратная оговорка / Избежать смерти / Escape Clause (Брайан Тренчард-Смит / Brian Trenchard-Smith) [1996, США, Детектив, триллер, TVRip] Dub ("Варус-видео") Один 777 1.36 GB
Отечественные cериалы Обратная сторона Луны (Александр Котт) / Серии 1-16 из 16 [2016 г., Фантастика, триллер, драма, криминал, детектив, WEB-DLRip] Pensioner 11.61 GB
Отечественные cериалы Обратная сторона Луны / Сезон: 1 / Серии: 1-16 из 16 (Aлександр Kотт) [2012, фантастика, триллер, драма, детектив, SATRip] sergej644 8.71 GB
Показать сообщения:    

Текущее время: Сегодня 08:32

Часовой пояс: GMT



Вы не можете начинать темы
Вы не можете отвечать на сообщения
Вы не можете редактировать свои сообщения
Вы не можете удалять свои сообщения
Вы не можете голосовать в опросах
Вы не можете прикреплять файлы к сообщениям
Вы не можете скачивать файлы