Обратная сторона правды / По ту сторону правды / Freedomland (Джо Рот / Joe Roth) [2006, США, триллер, драма, криминал, детектив, BDRip] DVO (R5)

 
Автор Сообщение

painkiller ®

Стаж: 2 года 3 месяца

Сообщений: 582



Награды: Нет

Торрент-статистика

Создавать темы 14-Авг-2014 13:04

[Цитировать]

Обратная сторона правды / Freedomland
Страна: США
Жанр: триллер, драма, криминал, детектив
Год выпуска: 2006
Продолжительность: 01:53:01
Перевод: Профессиональный (двухголосый закадровый) Лицензия R5
Cубтитры: нет
Режиссер: Джо Рот / Joe Roth
В ролях: Сэмюэл Л. Джексон, Джулианна Мур, Эди Фэлко, Рон Элдард, Уильям Форсайт, Онжаню Эллис, Энтони Маки, ЛаТаня Ричардсон, Кларк Питерс, Питер Фридман, Доменик Ломбардоззи, Аасиф Мандви
Описание: Неизвестный выкидывает мать-одиночку из машины, и растворяется с нею в ночи. Угонщик не заметил сидящего на заднем сидении четырехлетнего ребенка. Женщина обвиняет в преступлении чернокожего, провоцируя межрасовый скандал, погасить который под силу лишь белой журналистке и черному детективу, расследующим дело.
Доп. информация:
Качество видео: BDRip | Тарантиныч/BDRemux 1080p
Формат видео: AVI
Видео: 720x304 (2.37:1), 23.976 fps, XviD build 73 ~1452 kbps avg, 0.28 bit/pixel
Аудио: 48 kHz, AC3 Dolby Digital, 3/2 (L,C,R,l,r) + LFE ch, ~384 kbps

MediaInfo

Общее
Полное имя : C:\Documents and Settings\Пользователь\Рабочий стол\Торрентс.ру\Freedomland.2006.BDRip.DVO_by_LBS.avi
Формат : AVI
Формат/Информация : Audio Video Interleave
Размер файла : 1,46 Гбайт
Продолжительность : 1 ч. 53 м.
Общий поток : 1846 Кбит/сек
Режиссёр : Last Boy Scout
Программа кодирования : VirtualDubMod 1.5.10.3 | www.virtualdub-fr.org || (build 2550/release)
Правообладатель : torrentfilm.net 29.01.2014
Примечание : BDRip DVO (R5)
Видео
Идентификатор : 0
Формат : MPEG-4 Visual
Профиль формата : Advanced Simple@L5
Параметр BVOP формата : 1
Параметр QPel формата : Нет
Параметр GMC формата : Без точки перехода
Параметр матрицы формата : Выборочная
Идентификатор кодека : XVID
Идентификатор кодека/Подсказка : XviD
Продолжительность : 1 ч. 53 м.
Битрейт : 1453 Кбит/сек
Ширина : 720 пикселей
Высота : 304 пикселя
Соотношение сторон : 2,35:1
Частота кадров : 23,976 кадра/сек
Цветовое пространство : YUV
Субдискретизация насыщенности : 4:2:0
Битовая глубина : 8 бит
Тип развёртки : Прогрессивная
Метод сжатия : С потерями
Бит/(Пиксели*Кадры) : 0.277
Размер потока : 1,15 Гбайт (79%)
Библиотека кодирования : XviD 73
Аудио
Идентификатор : 1
Формат : AC-3
Формат/Информация : Audio Coding 3
Расширение режима : CM (complete main)
Параметр Endianness формата : Big
Идентификатор кодека : 2000
Продолжительность : 1 ч. 53 м.
Вид битрейта : Постоянный
Битрейт : 384 Кбит/сек
Каналы : 6 каналов
Расположение каналов : Front: L C R, Side: L R, LFE
Частота : 48,0 КГц
Битовая глубина : 16 бит
Метод сжатия : С потерями
Размер потока : 310 Мбайт (21%)
Выравнивание : Разделение по промежуткам
Продолжительность промежутка : 42 мс. (1,00 видеокадр)
Время предзагрузки промежутка : 500 мс.

Скриншоты

--
[Профиль] [ЛС]

Создавать темы 06-Авг-2015 23:13 (спустя 11 месяцев 23 дня)

Топик был перенесен из форума Фильмы до 2014 года в форум Фильмы до 2012 года
sergej644
 
Кто просматривает тему:

Форум Тема Автор Размер
Фильмы (HD Rips | 720p, 1080p) 6:42 / Обратный отсчёт / Countdown (2016) BDRip 720p | L Russian Mafia 4.12 GB
Зарубежные мультфильмы В ад и обратно / Hell and Back (2015) DVDRip | SinisterSound достали все 919 MB
Фильмы (HD Rips | 720p, 1080p) Необратимость / Irreversible (2002) BDRip 1080p | P2 sergej644 7.04 GB
Фильмы (HD Rips | 720p, 1080p) Необратимость / Irreversible (2002) BDRip 720p | P2 Russian Mafia 4.61 GB
Фильмы 2011 года Необратимость / Irreversible (2002) HDRip | P2 Russian Mafia 1.45 GB
Фильмы 2011 года Обратная оговорка / Избежать смерти / Escape Clause (Брайан Тренчард-Смит / Brian Trenchard-Smith) [1996, США, Детектив, триллер, TVRip] Dub ("Варус-видео") Один 777 1.36 GB
Отечественные cериалы Обратная сторона Луны (Александр Котт) / Серии 1-12 из 16 [2016 г., Фантастика, триллер, драма, криминал, детектив, WEB-DLRip] Pensioner 8.2 GB
Отечественные cериалы Обратная сторона Луны / Сезон: 1 / Серии: 1-16 из 16 (Aлександр Kотт) [2012, фантастика, триллер, драма, детектив, SATRip] sergej644 8.71 GB
Показать сообщения:    

Текущее время: Сегодня 18:51

Часовой пояс: GMT



Вы не можете начинать темы
Вы не можете отвечать на сообщения
Вы не можете редактировать свои сообщения
Вы не можете удалять свои сообщения
Вы не можете голосовать в опросах
Вы не можете прикреплять файлы к сообщениям
Вы не можете скачивать файлы