Обратная сторона Луны / Сезон: 1 / Серии: 1-16 из 16 (Aлександр Kотт) [2012, фантастика, триллер, драма, детектив, SATRip]

 
Автор Сообщение

sergej644 ®

Пол:

Стаж: 4 года 11 месяцев

Сообщений: 6043

Откуда: Soviet Union



Награды: Нет

Торрент-статистика

Создавать темы 15-Июл-2014 21:59

[Цитировать]

-Oбратная cторона Лyны-
Год выпуска: 2012
Жанр: фантастика, триллер, драма, криминал, детектив
Продолжительность: ~00:51:00 x16-Режиссёр: Aлександр Kотт
В ролях: Павел Деревянко (Михаил), Светлана Смирнова-Марцинкевич (Катя), Иван Шибанов (маньяк), Карина Разумовская (Людмила), Евгений Богомолов (Мишка), Олег Алмазов (Котов), Дмитрий Гусев (Игорь), Александр Ляпин (Степа), Татьяна Чердынцева (парикмахер), Сергей Беляев (Пряхин), Сергей Галахов (Андрей), Ирина Марцинкевич (Екатерина в возрасте)
Описание: Третий год старший лейтенант полиции Михаил Соловьев идет по следу Маньяка, терроризирующего столицу убийствами молодых женщин. Во время операции задержания Маньяк сбивает Соловьева автомобилем.
Придя в себя после аварии, Михаил обнаруживает, что переместился во времени и оказался в 1979 году. Не понимая до конца, что с ним произошло, он, тем не менее, старается адаптироваться к новым обстоятельствам, работая советским милиционером. А попутно пытается выяснить, в чем причина случившейся с ним метаморфозы.- -Качество видео: SATRip [исх. DVB by mydimka]
Формат: AVI
Видео: XviD, 704x400 (16:9), 25 fps, ~1300 kbps, 0.182 bpp
Аудио: MPEG Layer 3, 48 kHz, 2 ch, 128 kbps-

MediaInfo

General
Complete name : Обратная сторона Луны (2012)\Obratnaja.storona.luny.S01E03.2012.XviD.SATRip.avi
Format : AVI
Format/Info : Audio Video Interleave
File size : 526 MiB
Duration : 51mn 52s
Overall bit rate : 1 419 Kbps
Writing application : VirtualDubMod 1.5.10.3 | www.virtualdub-fr.org || (build 2550/release)
Writing library : VirtualDubMod build 2550/release
Video
ID : 0
Format : MPEG-4 Visual
Format profile : Advanced Simple@L5
Format settings, BVOP : 2
Format settings, QPel : No
Format settings, GMC : No warppoints
Format settings, Matrix : Custom
Codec ID : XVID
Codec ID/Hint : XviD
Duration : 51mn 52s
Bit rate : 1 281 Kbps
Width : 704 pixels
Height : 400 pixels
Display aspect ratio : 16:9
Frame rate : 25.000 fps
Color space : YUV
Chroma subsampling : 4:2:0
Bit depth : 8 bits
Scan type : Progressive
Compression mode : Lossy
Bits/(Pixel*Frame) : 0.182
Stream size : 475 MiB (90%)
Writing library : XviD 65
Audio
ID : 1
Format : MPEG Audio
Format version : Version 1
Format profile : Layer 3
Mode : Joint stereo
Mode extension : MS Stereo
Codec ID : 55
Codec ID/Hint : MP3
Duration : 51mn 52s
Bit rate mode : Constant
Bit rate : 128 Kbps
Channel(s) : 2 channels
Sampling rate : 48.0 KHz
Compression mode : Lossy
Stream size : 47.5 MiB (9%)
Alignment : Aligned on interleaves
Interleave, duration : 40 ms (1.00 video frame)
Interleave, preload duration : 504 ms
Writing library : LAME3.99.5Ugдд’Рю
[Профиль] [ЛС]
Показать сообщения:    

Текущее время: Сегодня 22:31

Часовой пояс: GMT



Вы не можете начинать темы
Вы не можете отвечать на сообщения
Вы не можете редактировать свои сообщения
Вы не можете удалять свои сообщения
Вы не можете голосовать в опросах
Вы не можете прикреплять файлы к сообщениям
Вы не можете скачивать файлы