Обратная оговорка / Избежать смерти / Escape Clause (Брайан Тренчард-Смит / Brian Trenchard-Smith) [1996, США, Детектив, триллер, TVRip] Dub ("Варус-видео")

 
Автор Сообщение

Один 777 ®

Пол:

Стаж: 1 год 8 месяцев

Сообщений: 458

Откуда: Луцк



Награды: 7 (Подробнее)

Mega Releaser 1 (Количество: 1) Mega Seeder 1 (Количество: 1) Mega Seeder 3 (Количество: 1)
Торрент-статистика

Создавать темы 20-Апр-2015 17:16

[Цитировать]

Обратная оговорка / Избежать смерти / Escape Clause Год выпуска: 1996
Страна: США
Жанр: Детектив, триллер
Продолжительность: 01:39:44
Перевод: Профессиональный (дублированный) студия "Варус-видео"
Cубтитры: нет
Режиссер: Брайан Тренчард-Смит / Brian Trenchard-Smith
В ролях: Пол Сорвино, Эндрю МакКарти, Стэн Игай, Виктор Янг, Кеннет Уэлш, Конни Бриттон, Кэйт МакНил, Джон Эванс, Питер Доналдсон, Шон Дик, Доун Гринхалг, Шантель Дик, Люпе Аренас, Сара Рослинг, Клер Ранкин, Стивен Богерт, Роджер Ханивелл, Рон Хартманн, Робби Рокс, Горд МакКензи, Филлип Джарретт, Скотт Виквэа, Джон Бойлан, Шоун Лоуренс, Чак Шамата...
Описание: Ричарду Рэмсэй, преуспевающему, остроумному страховому агенту, счастливому мужу и отцу двоих детей (Эндрю МакКарти,), позвонил некий человек и сообщил, что он нанят его женой Сарой за 10000 долларов, чтобы... убить его. За равнозначную сумму он согласен отказаться от "работы". Начало запоминающееся, а сюжет построен витиевато и нестандартно, хотя там, где речь о больших деньгах, всегда найдется место параноидальным отклонениям психики. Подозревать можно многих, но если бы я сказал, кто был настоящим убийцей (да, убийство состоится) и что за всем этим стояло, любители триллеров разорвали бы мою книжку на кусочки. А картина доставит им настоящее удовольствие.
Сэмпл: http://multi-up.com/1044695
Качество видео: TVRip
Формат видео: AVI
Видео кодек: XviD
Аудио кодек: АС3
Видео: XviD 64, 624x464 (4:3), 25.00 fps, 1752 kbps avg
Аудио: AC3 Dolby Digital, 48 kHz, 2/0 (L,R) ch, 192.00 kbps avg

MediaInfo

General
Complete name : E:\Escape Clause.1996\Escape Clause.1996.TVRip.Dubl.avi
Format : AVI
Format/Info : Audio Video Interleave
File size : 1.36 GiB
Duration : 1h 39mn
Overall bit rate : 1 954 Kbps
Writing application : VirtualDubModRus 1.5.10.2
Writing library : VirtualDubMod build 2542/release
Video
ID : 0
Format : MPEG-4 Visual
Format profile : Advanced Simple@L5
Format settings, BVOP : 2
Format settings, QPel : No
Format settings, GMC : No warppoints
Format settings, Matrix : Default (H.263)
Codec ID : XVID
Codec ID/Hint : XviD
Duration : 1h 39mn
Bit rate : 1 752 Kbps
Width : 624 pixels
Height : 464 pixels
Display aspect ratio : 4:3
Frame rate : 23.976 fps
Color space : YUV
Chroma subsampling : 4:2:0
Bit depth : 8 bits
Scan type : Progressive
Compression mode : Lossy
Bits/(Pixel*Frame) : 0.252
Stream size : 1.22 GiB (90%)
Writing library : XviD 64
Audio
ID : 1
Format : AC-3
Format/Info : Audio Coding 3
Mode extension : CM (complete main)
Format settings, Endianness : Big
Codec ID : 2000
Duration : 1h 39mn
Bit rate mode : Constant
Bit rate : 192 Kbps
Channel(s) : 2 channels
Channel positions : Front: L R
Sampling rate : 48.0 KHz
Bit depth : 16 bits
Compression mode : Lossy
Stream size : 137 MiB (10%)
Alignment : Split accross interleaves
Interleave, duration : 42 ms (1.00 video frame)
Interleave, preload duratio : 500 ms

Скриншоты

[Профиль] [ЛС]

Создавать темы 06-Авг-2015 22:35 (спустя 3 месяца 16 дней)

Топик был перенесен из форума Фильмы до 2014 года в форум Фильмы до 2012 года
sergej644
 
Показать сообщения:    

Текущее время: Сегодня 05:19

Часовой пояс: GMT



Вы не можете начинать темы
Вы не можете отвечать на сообщения
Вы не можете редактировать свои сообщения
Вы не можете удалять свои сообщения
Вы не можете голосовать в опросах
Вы не можете прикреплять файлы к сообщениям
Вы не можете скачивать файлы