Образцовый самец 2 / Zoolander 2 (2016) BDRip 720p | iTunes

 
Автор Сообщение

достали все ®

Пол:

Стаж: 1 год 8 месяцев

Сообщений: 6581



Награды: 12 (Подробнее)

Mega Releaser 1 (Количество: 1) Top Releaser 2 (Количество: 1) Mega Seeder 4 (Количество: 1)
Торрент-статистика

Создавать темы 07-Июн-2016 02:52

[Цитировать]

Информация о фильме
Название: Образцовый самец 2
Оригинальное название: Zoolander 2
Год выхода: 2016
Жанр: Комедия
Режиссер: Бен Стиллер
В ролях: Бен Стиллер, Оуэн Уилсон, Пенелопа Крус, Кристен Уиг, Уилл Феррелл, Бенедикт Камбербэтч, Оливия Манн, Кристин Тейлор, Ариана Гранде, Джастин Бибер, Билли Зейн, Мадалина Диана Генея, Сайрус Арнольд, Фред Армисен, Канье Уэст, Антонио Те Майохо, Мика, Льюис Хэмилтон, Евгения Темпеста, Алан Капелли Гетц
О фильме:
Триумфальное возвращение на подиумы когда-то топовых, а ныне слегка потрепанных мужчин-моделей Дерека Зуландера и Ханселя в комедии о мире, где для обретения всеобщей популярности достаточно одного селфи.

Страна: США
Студия: Red Hour Films, Scott Rudin Productions
Продолжительность: 01:41:47
Перевод: Дублированный | iTunes
Файл
Кодек: MPEG-4
Качество: BDRip 720p
Видео: 1280x536, 4427 Kbit/s, 23.976 fps
Звук:
Аудио #01: 48 kHz, AC3, 5.1, 384 Kbps | Дублированный, iTunes |
Аудио #02: 48 kHz, DTS, 5.1, 1510 kbps | Оригинал |
Субтитры: Английские
Релиз от: Автор релиза:

MI

General
Unique ID : 200697393116803806053132224177971219048 (0x96FCE9735A99928BA181F9AC6D254A68)
Complete name : F:VideoZoolander...2.2016.BDRip.720p.ExKinoRay.mkv
Format : Matroska
Format version : Version 4 / Version 2
File size : 4.50 GiB
Duration : 1h 41mn
Overall bit rate : 6 323 Kbps
Movie name : Zoolander...2.2016.BDRip.720p.ExKinoRay
Encoded date : UTC 2016-06-07 02:09:47
Writing application : mkvmerge v8.3.0 ('Over the Horizon') 64bit
Writing library : libebml v1.3.1 + libmatroska v1.4.2
Video
ID : 1
Format : AVC
Format/Info : Advanced Video Codec
Format profile : High@L4.1
Format settings, CABAC : Yes
Format settings, ReFrames : 12 frames
Codec ID : V_MPEG4/ISO/AVC
Duration : 1h 41mn
Bit rate : 4 427 Kbps
Width : 1 280 pixels
Height : 536 pixels
Display aspect ratio : 2.40:1
Frame rate mode : Constant
Frame rate : 23.976 (24000/1001) fps
Color space : YUV
Chroma subsampling : 4:2:0
Bit depth : 8 bits
Scan type : Progressive
Bits/(Pixel*Frame) : 0.269
Stream size : 3.15 GiB (70%)
Title : Zoolander...2.2016.BDRip.720p.ExKinoRay.***селезень***
Writing library : x264 core 148 r2665+53 6629127 t_mod_Custom [8-bit@all X86_64]
Encoding settings : cabac=1 / ref=12 / deblock=1:-3:-3 / analyse=0x3:0x133 / me=umh / subme=11 / psy=1 / fade_compensate=0.00 / psy_rd=1.05:0.00 / mixed_ref=1 / me_range=32 / chroma_me=1 / trellis=2 / 8x8dct=1 / cqm=0 / deadzone=21,11 / fast_pskip=0 / chroma_qp_offset=-2 / threads=16 / lookahead_threads=2 / sliced_threads=0 / nr=0 / decimate=0 / interlaced=0 / bluray_compat=0 / constrained_intra=0 / fgo=0 / bframes=7 / b_pyramid=2 / b_adapt=2 / b_bias=0 / direct=3 / weightb=1 / open_gop=0 / weightp=2 / keyint=250 / keyint_min=23 / scenecut=40 / intra_refresh=0 / rc_lookahead=150 / rc=crf / mbtree=0 / crf=16.0000 / qcomp=0.65 / qpmin=0:0:0 / qpmax=69:69:69 / qpstep=4 / vbv_maxrate=50000 / vbv_bufsize=62500 / crf_max=0.0 / nal_hrd=none / filler=0 / ip_ratio=1.30 / pb_ratio=1.20 / aq=1:0.80 / aq-sensitivity=10.00 / aq-factor=1.00:1.00:1.00 / aq2=0 / aq3=0
Language : English
Default : Yes
Forced : No
Color range : Limited
Matrix coefficients : BT.709
Audio #1
ID : 2
Format : AC-3
Format/Info : Audio Coding 3
Mode extension : CM (complete main)
Format settings, Endianness : Big
Codec ID : A_AC3
Duration : 1h 41mn
Bit rate mode : Constant
Bit rate : 384 Kbps
Channel(s) : 6 channels
Channel positions : Front: L C R, Side: L R, LFE
Sampling rate : 48.0 KHz
Frame rate : 31.250 fps (1536 spf)
Compression mode : Lossy
Delay relative to video : 2s 16ms
Stream size : 279 MiB (6%)
Title : DUB [iTunes]
Language : Russian
Default : Yes
Forced : No
Audio #2
ID : 3
Format : DTS
Format/Info : Digital Theater Systems
Mode : 16
Format settings, Endianness : Big
Codec ID : A_DTS
Duration : 1h 41mn
Bit rate mode : Constant
Bit rate : 1 509 Kbps
Channel(s) : 6 channels
Channel positions : Front: L C R, Side: L R, LFE
Sampling rate : 48.0 KHz
Frame rate : 93.750 fps (512 spf)
Bit depth : 24 bits
Compression mode : Lossy
Stream size : 1.07 GiB (24%)
Title : Original
Language : English
Default : No
Forced : No
Text #1
ID : 4
Format : UTF-8
Codec ID : S_TEXT/UTF8
Codec ID/Info : UTF-8 Plain Text
Duration : 1h 33mn
Bit rate : 64 bps
Count of elements : 1383
Stream size : 44.2 KiB (0%)
Title : Full
Language : English
Default : No
Forced : No
Text #2
ID : 5
Format : UTF-8
Codec ID : S_TEXT/UTF8
Codec ID/Info : UTF-8 Plain Text
Duration : 1h 34mn
Bit rate : 68 bps
Count of elements : 1686
Stream size : 47.8 KiB (0%)
Title : SDH
Language : English
Default : No
Forced : No
Menu
00:00:00.000 : en:Chapter 01
00:07:40.877 : en:Chapter 02
00:12:25.370 : en:Chapter 03
00:15:26.217 : en:Chapter 04
00:22:49.868 : en:Chapter 05
00:28:41.136 : en:Chapter 06
00:31:07.074 : en:Chapter 07
00:36:42.617 : en:Chapter 08
00:42:54.614 : en:Chapter 09
00:48:54.974 : en:Chapter 10
00:56:57.039 : en:Chapter 11
01:07:00.225 : en:Chapter 12
01:14:33.010 : en:Chapter 13
01:18:17.067 : en:Chapter 14
01:23:42.226 : en:Chapter 15
01:33:15.548 : en:Chapter 16

Скриншоты

[Профиль] [ЛС]
Кто просматривает тему:

Форум Тема Автор Размер
Работа с носителями информации "CyberLink DVD Suite Samsung Edition" - Официальная Русская Версия (ключ в образе) TorrentFilm 508 MB
Научная и техническая литература 1000 образцов стрелкового оружия [2004, DjVu] Garik014 12 MB
Da Vinci Learning Da Vinci Learning: Крайности (Контрасты): свет и тьма / Extreme: Light and Dark (Udo Maurer) [2013 г., Документальный, образование, история, путешествия, SATRip] skorpionN 685 MB
Windows 10 Microsoft Windows 10 Education - Оригинальные образы от Microsoft VLSC [En-Ru] MOTrOSS 15.27 GB
Windows 10 Microsoft Windows 10 Education 10.0.10586 Version 1511 (Updated Feb 2016) - Оригинальные образы от Microsoft MSDN [Ru] nickson-82 6.75 GB
Windows 10 Microsoft Windows 10 Enterprise 10.0.10586 Version 1511 (Updated Feb 2016) - Оригинальные образы от Microsoft MSDN [Ru] nickson-82 6.75 GB
Windows 10 Microsoft Windows 10 Multiple Editions 10.0.10586 Version 1511 (Updated Feb 2016) - Оригинальные образы от Microsoft MSDN [Ru] nickson-82 7.1 GB
Windows Vista Microsoft Windows Vista with SP2 x86 x64 Оригинальные MSDN образы (2009) 6002.18005.090410-1830 2 x86+x64 sergej644 6.26 GB
Показать сообщения:    

Текущее время: Сегодня 00:21

Часовой пояс: GMT



Вы не можете начинать темы
Вы не можете отвечать на сообщения
Вы не можете редактировать свои сообщения
Вы не можете удалять свои сообщения
Вы не можете голосовать в опросах
Вы не можете прикреплять файлы к сообщениям
Вы не можете скачивать файлы