Образцовый самец 2 / Zoolander 2 (2016) BDRemux 1080p | D | Line

 
Автор Сообщение

достали все ®

Пол:

Стаж: 1 год 8 месяцев

Сообщений: 6613



Награды: 12 (Подробнее)

Mega Releaser 3 (Количество: 1) Top Releaser 2 (Количество: 1) За внесенный вклад в развитие сайта (Количество: 1)
Торрент-статистика

Создавать темы 13-Май-2016 09:45

[Цитировать]

Информация о фильме
Название: Образцовый самец 2
Оригинальное название: Zoolander 2
Год выхода: 2016
Жанр: Комедия
Режиссёр: Бен Стиллер
В ролях: Бен Стиллер, Оуэн Уилсон, Пенелопа Крус, Кристен Уиг, Уилл Феррелл, Бенедикт Камбербэтч, Оливия Манн, Кристин Тейлор, Ариана Гранде, Джастин Бибер, Билли Зейн, Мадалина Диана Генея, Сайрус Арнольд, Фред Армисен, Канье Уэст, Антонио Те Майохо, Мика, Льюис Хэмилтон, Евгения Темпеста, Алан Капелли Гетц
О фильме: Триумфальное возвращение на подиумы когда-то топовых, а ныне слегка потрепанных мужчин-моделей Дерека Зуландера и Ханселя в комедии о мире, где для обретения всеобщей популярности достаточно одного селфи.

Выпущено: США, Red Hour Films, Scott Rudin Productions
Продолжительность: 01:41:47
Перевод: Дублированный (SDI-Media) | Line
Оригинальная аудио-дорожка: Английская, английская (с комментариями создателей фильма)
Файл
Формат: MKV
Качество: BDRemux 1080p [Исходник: Blu-ray 1080p AVC DTS-HD 7.1]
Видео: MPEG-4 AVC, 1920x1080 (16:9), 26144 Кбит/с, 23.976 кадр/с
Аудио #1: Русский, Dolby AC3, 48000 Гц, 384 Кбит/с, 2 канала (Стерео) - DUB [SDI-Media]
Аудио #2: Английская, DTS, 48000 Гц, 1510 Кбит/с, 6 каналов (5.1) - Оригинал
Аудио #3: Английская, DTS-HD MA, 48000 Гц, 6239 Кбит/с, 8 каналов (7.1) - Оригинал
Аудио #4: Английская, Dolby AC3, 48000 Гц, 640 Кбит/с, 6 каналов (5.1) - Оригинал (с комментариями создателей фильма)
Субтитры: Английские (полные, SDH) SRT
Навигация по главам: Есть (Сохранены оригинальные чаптеры, как на Blu-ray)

MediaInfo

General
Unique ID : 180396609737647512152961760895978205233 (0x87B71F8DB3FCBF05B578A3BD26047031)
Complete name : Zoolander.2.2016.BDRemux.1080p.mkv
Format : Matroska
Format version : Version 4 / Version 2
File size : 24.6 GiB
Duration : 1h 41mn
Overall bit rate mode : Variable
Overall bit rate : 34.7 Mbps
Movie name : Образцовый самец 2 / Zoolander 2 (2016) Blu-ray Remux (1080p) от ivandubskoj
Encoded date : UTC 2016-05-13 07:55:10
Writing application : mkvmerge v7.9.0 ('Birds') 64bit
Writing library : libebml v1.3.1 + libmatroska v1.4.2
Video
ID : 1
Format : AVC
Format/Info : Advanced Video Codec
Format profile : High@L4.1
Format settings, CABAC : Yes
Format settings, ReFrames : 4 frames
Codec ID : V_MPEG4/ISO/AVC
Duration : 1h 41mn
Bit rate mode : Variable
Maximum bit rate : 28.0 Mbps
Width : 1 920 pixels
Height : 1 080 pixels
Display aspect ratio : 16:9
Frame rate mode : Constant
Frame rate : 23.976 fps
Color space : YUV
Chroma subsampling : 4:2:0
Bit depth : 8 bits
Scan type : Progressive
Title : Zoolander 2 (2016)
Language : English
Default : Yes
Forced : No
Audio #1
ID : 2
Format : AC-3
Format/Info : Audio Coding 3
Mode extension : CM (complete main)
Format settings, Endianness : Big
Codec ID : A_AC3
Duration : 1h 41mn
Bit rate mode : Constant
Bit rate : 384 Kbps
Channel(s) : 2 channels
Channel positions : Front: L R
Sampling rate : 48.0 KHz
Bit depth : 16 bits
Compression mode : Lossy
Stream size : 280 MiB (1%)
Title : DUB [SDI-Media] [DD 2.0]
Language : Russian
Default : Yes
Forced : No
Audio #2
ID : 3
Format : DTS
Format/Info : Digital Theater Systems
Mode : 16
Format settings, Endianness : Big
Codec ID : A_DTS
Duration : 1h 41mn
Bit rate mode : Constant
Bit rate : 1 509 Kbps
Channel(s) : 6 channels
Channel positions : Front: L C R, Side: L R, LFE
Sampling rate : 48.0 KHz
Bit depth : 24 bits
Compression mode : Lossy
Delay relative to video : 1s 1ms
Stream size : 1.07 GiB (4%)
Title : Original [DTS 5.1]
Language : English
Default : No
Forced : No
Audio #3
ID : 4
Format : DTS
Format/Info : Digital Theater Systems
Format profile : MA / Core
Mode : 16
Format settings, Endianness : Big
Codec ID : A_DTS
Duration : 1h 41mn
Bit rate mode : Variable
Bit rate : Unknown / 1 509 Kbps
Channel(s) : 8 channels / 6 channels
Channel positions : Front: L C R, Side: L R, Back: L R, LFE / Front: L C R, Side: L R, LFE
Sampling rate : 48.0 KHz
Bit depth : 24 bits
Compression mode : Lossless / Lossy
Delay relative to video : 1s 1ms
Title : Original [DTS-HD MA 7.1]
Language : English
Default : No
Forced : No
Audio #4
ID : 5
Format : AC-3
Format/Info : Audio Coding 3
Mode extension : CM (complete main)
Format settings, Endianness : Big
Codec ID : A_AC3
Duration : 1h 41mn
Bit rate mode : Constant
Bit rate : 640 Kbps
Channel(s) : 6 channels
Channel positions : Front: L C R, Side: L R, LFE
Sampling rate : 48.0 KHz
Bit depth : 16 bits
Compression mode : Lossy
Delay relative to video : 1s 1ms
Stream size : 466 MiB (2%)
Title : Original [Comments] [DD 5.1]
Language : English
Default : No
Forced : No
Text #1
ID : 6
Format : UTF-8
Codec ID : S_TEXT/UTF8
Codec ID/Info : UTF-8 Plain Text
Title : Full
Language : English
Default : No
Forced : No
Text #2
ID : 7
Format : UTF-8
Codec ID : S_TEXT/UTF8
Codec ID/Info : UTF-8 Plain Text
Title : Full [SDH]
Language : English
Default : No
Forced : No
Menu
00:00:00.000 : en:Chapter 01
00:07:40.960 : en:Chapter 02
00:12:25.494 : en:Chapter 03
00:15:26.216 : en:Chapter 04
00:22:49.868 : en:Chapter 05
00:28:41.261 : en:Chapter 06
00:31:07.115 : en:Chapter 07
00:36:42.700 : en:Chapter 08
00:42:54.613 : en:Chapter 09
00:48:54.973 : en:Chapter 10
00:56:56.663 : en:Chapter 11
01:07:00.266 : en:Chapter 12
01:14:32.634 : en:Chapter 13
01:18:17.067 : en:Chapter 14
01:23:42.225 : en:Chapter 15
01:33:15.298 : en:Chapter 16

Скриншоты



Автор ремукса - ivandubskoj
[Профиль] [ЛС]
Кто просматривает тему:

Форум Тема Автор Размер
Работа с носителями информации "CyberLink DVD Suite Samsung Edition" - Официальная Русская Версия (ключ в образе) TorrentFilm 508 MB
Научная и техническая литература 1000 образцов стрелкового оружия [2004, DjVu] Garik014 12 MB
Da Vinci Learning Da Vinci Learning: Крайности (Контрасты): свет и тьма / Extreme: Light and Dark (Udo Maurer) [2013 г., Документальный, образование, история, путешествия, SATRip] skorpionN 685 MB
Windows 10 Microsoft Windows 10 Education - Оригинальные образы от Microsoft VLSC [En-Ru] MOTrOSS 15.27 GB
Windows 10 Microsoft Windows 10 Education 10.0.10586 Version 1511 (Updated Feb 2016) - Оригинальные образы от Microsoft MSDN [Ru] nickson-82 6.75 GB
Windows 10 Microsoft Windows 10 Enterprise 10.0.10586 Version 1511 (Updated Feb 2016) - Оригинальные образы от Microsoft MSDN [Ru] nickson-82 6.75 GB
Windows 10 Microsoft Windows 10 Multiple Editions 10.0.10586 Version 1511 (Updated Feb 2016) - Оригинальные образы от Microsoft MSDN [Ru] nickson-82 7.1 GB
Windows Vista Microsoft Windows Vista with SP2 x86 x64 Оригинальные MSDN образы (2009) 6002.18005.090410-1830 2 x86+x64 sergej644 6.26 GB
Показать сообщения:    

Текущее время: Сегодня 00:35

Часовой пояс: GMT



Вы не можете начинать темы
Вы не можете отвечать на сообщения
Вы не можете редактировать свои сообщения
Вы не можете удалять свои сообщения
Вы не можете голосовать в опросах
Вы не можете прикреплять файлы к сообщениям
Вы не можете скачивать файлы