Образцовые семьи / Belles familles (2015) BDRip 1080p | iTunes

 
Автор Сообщение

достали все ®

Пол:

Стаж: 1 год 8 месяцев

Сообщений: 6536



Награды: 12 (Подробнее)

Mega Releaser 3 (Количество: 1) За внесенный вклад в развитие сайта (Количество: 1) Mega Seeder 3 (Количество: 1)
Торрент-статистика

Создавать темы 15-Апр-2016 14:01

[Цитировать]

Название: Образцовые семьи
Оригинальное название: Belles familles
Год выпуска: 2015
Жанр: Комедия, драма
Выпущено: Франция, ARP Sélection, TF1 Films Production, Canal+
Режиссер: Жан-Поль Раппно
В ролях: Матьё Амальрик, Марин Вакт, Жиль Леллуш, Джемма Чан, Николь Гарсиа, Карин Вьяр, Гийом де Тонкедек, Андре Дюссолье, Клод Перрон, Жан-Мари Винлин
О фильме: Стремясь отстоять интересы семьи, успешный бизнесмен Жером Варен начинает действовать как «сорви-голова». Он прерывает деловую поездку и отправляется в родовое поместье, ставшее причиной судебной тяжбы. Здесь, встречаясь с друзьями детства, герой оказывается в плену немыслимых интриг, в центре которых — женщина. В нее он влюбляется без оглядки…

Качество: BDRip 1080p
Видео: MPEG-4 AVC, 8500 Кбит/с, 1920x800
Аудио: Русский (AC3, 6 ch, 384 Кбит/с), французский (DTS, 6 ch, 1510 Кбит/с)
Субтитры: Французские
Продолжительность: 01:54:00
Перевод: Дублированный [ITunes]

Скриншоты

MI

Полное имя : X:novotelecomObrazcovye.semji.2015.D.BDRip.1080p.mkv
Формат : Matroska
Версия формата : Version 4 / Version 2
Размер файла : 8,25 Гбайт
Продолжительность : 1 ч. 54 м.
Общий поток : 10,4 Мбит/сек
Дата кодирования : UTC 2016-04-15 10:25:57
Программа кодирования : mkvmerge v9.0.1 ('Obstacles') 64bit
Библиотека кодирования : libebml v1.3.3 + libmatroska v1.4.4
Видео
Идентификатор : 1
Формат : AVC
Формат/Информация : Advanced Video Codec
Профиль формата : High@L4.1
Параметр CABAC формата : Да
Параметр ReFrames формата : 5 кадров
Идентификатор кодека : V_MPEG4/ISO/AVC
Продолжительность : 1 ч. 54 м.
Битрейт : 8465 Кбит/сек
Ширина : 1920 пикселей
Высота : 800 пикселей
Соотношение сторон : 2,40:1
Режим частоты кадров : Постоянный
Частота кадров : 23,976 (24000/1001) кадра/сек
Цветовое пространство : YUV
Субдискретизация насыщенности : 4:2:0
Битовая глубина : 8 бит
Тип развёртки : Прогрессивная
Бит/(Пиксели*Кадры) : 0.230
Размер потока : 6,74 Гбайт (82%)
Библиотека кодирования : x264 core 148 r2665 a01e339
Настройки программы : cabac=1 / ref=5 / deblock=1:0:0 / analyse=0x3:0x113 / me=umh / subme=8 / psy=1 / psy_rd=1.00:0.00 / mixed_ref=1 / me_range=16 / chroma_me=1 / trellis=1 / 8x8dct=1 / cqm=0 / deadzone=21,11 / fast_pskip=1 / chroma_qp_offset=-2 / threads=18 / lookahead_threads=3 / sliced_threads=0 / nr=0 / decimate=1 / interlaced=0 / bluray_compat=0 / constrained_intra=0 / bframes=3 / b_pyramid=2 / b_adapt=2 / b_bias=0 / direct=3 / weightb=1 / open_gop=0 / weightp=2 / keyint=240 / keyint_min=24 / scenecut=40 / intra_refresh=0 / rc_lookahead=50 / rc=2pass / mbtree=1 / bitrate=8465 / ratetol=1.0 / qcomp=0.60 / qpmin=0 / qpmax=69 / qpstep=4 / cplxblur=20.0 / qblur=0.5 / ip_ratio=1.40 / aq=1:1.00
Язык : English
Default : Да
Forced : Нет
Аудио #1
Идентификатор : 2
Формат : AC-3
Формат/Информация : Audio Coding 3
Расширение режима : CM (complete main)
Параметр Endianness формата : Big
Идентификатор кодека : A_AC3
Продолжительность : 1 ч. 53 м.
Вид битрейта : Постоянный
Битрейт : 384 Кбит/сек
Каналы : 6 каналов
Расположение каналов : Front: L C R, Side: L R, LFE
Частота : 48,0 КГц
Частота кадров : 31,250 кадров/сек (1536 spf)
Метод сжатия : С потерями
Размер потока : 313 Мбайт (4%)
Язык : Russian
Default : Да
Forced : Да
Аудио #2
Идентификатор : 3
Формат : DTS
Формат/Информация : Digital Theater Systems
Режим : 16
Параметр Endianness формата : Big
Идентификатор кодека : A_DTS
Продолжительность : 1 ч. 54 м.
Вид битрейта : Постоянный
Битрейт : 1509 Кбит/сек
Каналы : 6 каналов
Расположение каналов : Front: L C R, Side: L R, LFE
Частота : 48,0 КГц
Частота кадров : 93,750 кадра/сек (512 spf)
Битовая глубина : 24 бит
Метод сжатия : С потерями
Размер потока : 1,20 Гбайт (15%)
Заголовок : French DTS 1509kbps
Язык : French
Default : Нет
Forced : Нет
Текст
Идентификатор : 4
Формат : UTF-8
Идентификатор кодека : S_TEXT/UTF8
Идентификатор кодека/Информация : UTF-8 Plain Text
Продолжительность : 1 ч. 30 м.
Битрейт : 5 бит/сек
Count of elements : 130
Размер потока : 3,39 Кбайт (0%)
Заголовок : Forced
Язык : French
Default : Нет
Forced : Нет
Меню
00:00:00.000 : en:00:00:00.000
00:09:32.280 : en:00:09:32.280
00:21:37.004 : en:00:21:37.004
00:30:38.587 : en:00:30:38.587
00:41:08.716 : en:00:41:08.716
00:52:00.492 : en:00:52:00.492
01:03:48.199 : en:01:03:48.199
01:12:07.740 : en:01:12:07.740
01:22:43.542 : en:01:22:43.542
01:33:12.378 : en:01:33:12.378
01:44:38.147 : en:01:44:38.147
01:49:30.022 : en:01:49:30.022
[Профиль] [ЛС]
Кто просматривает тему:

Форум Тема Автор Размер
Работа с носителями информации "CyberLink DVD Suite Samsung Edition" - Официальная Русская Версия (ключ в образе) TorrentFilm 508 MB
Научная и техническая литература 1000 образцов стрелкового оружия [2004, DjVu] Garik014 12 MB
Da Vinci Learning Da Vinci Learning: Крайности (Контрасты): свет и тьма / Extreme: Light and Dark (Udo Maurer) [2013 г., Документальный, образование, история, путешествия, SATRip] skorpionN 685 MB
Windows 10 Microsoft Windows 10 Education - Оригинальные образы от Microsoft VLSC [En-Ru] MOTrOSS 15.27 GB
Windows 10 Microsoft Windows 10 Education 10.0.10586 Version 1511 (Updated Feb 2016) - Оригинальные образы от Microsoft MSDN [Ru] nickson-82 6.75 GB
Windows 10 Microsoft Windows 10 Enterprise 10.0.10586 Version 1511 (Updated Feb 2016) - Оригинальные образы от Microsoft MSDN [Ru] nickson-82 6.75 GB
Windows 10 Microsoft Windows 10 Multiple Editions 10.0.10586 Version 1511 (Updated Feb 2016) - Оригинальные образы от Microsoft MSDN [Ru] nickson-82 7.1 GB
Windows Vista Microsoft Windows Vista with SP2 x86 x64 Оригинальные MSDN образы (2009) 6002.18005.090410-1830 2 x86+x64 sergej644 6.26 GB
Показать сообщения:    

Текущее время: Сегодня 06:26

Часовой пояс: GMT



Вы не можете начинать темы
Вы не можете отвечать на сообщения
Вы не можете редактировать свои сообщения
Вы не можете удалять свои сообщения
Вы не можете голосовать в опросах
Вы не можете прикреплять файлы к сообщениям
Вы не можете скачивать файлы