Оборотень / Dark Moon Rising (2015) WEB-DL 720р от ExKinoRay | L1

 
Автор Сообщение

достали все ®

Пол:

Стаж: 1 год 8 месяцев

Сообщений: 6605



Награды: 12 (Подробнее)

Top Releaser 2 (Количество: 1) Top Releaser 3 (Количество: 1) Mega Releaser 2 (Количество: 1)
Торрент-статистика

Создавать темы 13-Авг-2015 21:54

[Цитировать]

Информация о фильме
Название: Восход тёмной луны (Оборотень)
Оригинальное название: Dark Moon Rising
Год выпуска: 2015
Жанр: Фэнтези
Режиссер: Джастин Прайс
В ролях: Стаси Эспер, Эрик Робертс, Линда Ку, Билли Блэнкс, Джастин Прайс, Камерон Уайт, Лиза Мэй, Мэттью Симмонс, Джаред Оллман, Эмили Бедфорд
О фильме: Группа перевертышей и оборотней прибывает в маленький городок в поисках девушки, которая рождается раз в 2000 лет. Она является ключом к их выживанию, и они готовы уничтожить любого, кто встанет на их пути..

Страна: США, Pikchure Zero Entertainment
Продолжительность: 01:25:34
Перевод фильма: Enigma
Озвучено: Любительский (одноголосый закадровый) Хихикающий доктор
Файл
Качество: WEB-DL (720p)
Видео: MPEG-4 AVC, 1585 Кбит/с, 1280x528
Аудио: Русский (AC3, 2 ch, 192 Кбит/с), английский (AC3, 6 ch, 384 Кбит/с)
Субтитры: Английские

MI

General
Unique ID : 208163503749674096339030451616233281221 (0x9C9AD52007F7E46C986BB125F7D7D6C5)
Complete name : C:Dark.Moon.Rising.2015.xixidok.WEB-DL.720p.ExKinoRay.mkv
Format : Matroska
Format version : Version 4 / Version 2
File size : 2.74 GiB
Duration : 1h 25mn
Overall bit rate : 4 579 Kbps
Movie name : Dark Moon Rising 2015 from ExKinoRay
Encoded date : UTC 2015-08-13 15:23:22
Writing application : mkvmerge v6.6.0 ('The Edge Of The In Between') built on Dec 1 2013 17:55:00
Writing library : libebml v1.3.0 + libmatroska v1.4.1
Video
ID : 1
Format : AVC
Format/Info : Advanced Video Codec
Format profile : Main@L3.1
Format settings, CABAC : No
Format settings, ReFrames : 2 frames
Codec ID : V_MPEG4/ISO/AVC
Duration : 1h 25mn
Bit rate : 3 912 Kbps
Width : 1 280 pixels
Height : 528 pixels
Display aspect ratio : 2.40:1
Frame rate mode : Constant
Frame rate : 23.976 fps
Color space : YUV
Chroma subsampling : 4:2:0
Bit depth : 8 bits
Scan type : Progressive
Bits/(Pixel*Frame) : 0.241
Stream size : 2.34 GiB (85%)
Title : Dark.Moon.Rising.2015
Language : English
Default : Yes
Forced : No
Color primaries : BT.709
Transfer characteristics : BT.709
Matrix coefficients : BT.709
Audio #1
ID : 2
Format : AC-3
Format/Info : Audio Coding 3
Mode extension : CM (complete main)
Format settings, Endianness : Big
Codec ID : A_AC3
Duration : 1h 25mn
Bit rate mode : Constant
Bit rate : 192 Kbps
Channel(s) : 2 channels
Channel positions : Front: L R
Sampling rate : 44.1 KHz
Bit depth : 16 bits
Compression mode : Lossy
Stream size : 118 MiB (4%)
Title : xixidok
Language : Russian
Default : No
Forced : No
Audio #2
ID : 3
Format : AC-3
Format/Info : Audio Coding 3
Mode extension : CM (complete main)
Format settings, Endianness : Big
Codec ID : A_AC3
Duration : 1h 25mn
Bit rate mode : Constant
Bit rate : 384 Kbps
Channel(s) : 6 channels
Channel positions : Front: L C R, Side: L R, LFE
Sampling rate : 48.0 KHz
Bit depth : 16 bits
Compression mode : Lossy
Stream size : 235 MiB (8%)
Language : English
Default : No
Forced : No
Text
ID : 4
Format : UTF-8
Codec ID : S_TEXT/UTF8
Codec ID/Info : UTF-8 Plain Text
Language : English
Default : No
Forced : No
Menu
00:00:00.000 : en:1
00:05:39.000 : en:2
00:17:01.000 : en:3
00:35:46.000 : en:4
00:48:48.000 : en:5
01:02:02.000 : en:6
01:20:34.000 : en:7

Автор релиза:
Oзвучка от:
[Профиль] [ЛС]
Показать сообщения:    

Текущее время: Сегодня 09:10

Часовой пояс: GMT



Вы не можете начинать темы
Вы не можете отвечать на сообщения
Вы не можете редактировать свои сообщения
Вы не можете удалять свои сообщения
Вы не можете голосовать в опросах
Вы не можете прикреплять файлы к сообщениям
Вы не можете скачивать файлы