Оболтусы / Homies (Йон Картхаус / Jon Karthaus) [2015, Нидерланды, Комедия, DVDRip] DVO (Lord32x Studio)

 
Автор Сообщение

TorrentFilm ®

Пол:

Стаж: 1 год 11 месяцев

Сообщений: 7741



Награды: Нет

Торрент-статистика

Создавать темы 04-Июл-2015 00:07

[Цитировать]

Оболтусы / Homies- Страна: Нидерланды
Жанр: Комедия
Год выпуска: 2015
Продолжительность: 01:36:36-Перевод: Любительский (двухголосый закадровый) Lord32x Studio
Cубтитры: нет
Оригинальная аудиодорожка: нет-Режиссер: Йон Картхаус / Jon Karthaus-В ролях: Роберт де Хуг, Гийс Нейбер, Мануэль Брокман, Янник ван де Вельде, Кики ван Дерсен-Описание: Четверо взрослых, но упорно не желающих взрослеть друзей, живут вместе в одной квартире и придумывают разные безумные планы, как бы быстрее заработать много денег. Однажды они переходят дорогу русской мафии и оказываются должны бандитам миллион евро. Если они не найдут деньги за 7 дней, их разрежут на кусочки и скормят акулам в местном океанариуме. Это будет самая безумная неделя в их жизни.-Сэмпл / КиноПоиск-Качество видео: DVDRip
Формат видео: AVI-Видео: MPEG-4 Visual at 1713 Кбит/сек, 720 x 304 (2.368) at 25.000 fps
Аудио: Rus AC-3 at 448 Кбит/сек, 6 каналов, 48,0 КГц

Дополнительная информация о переводе

Озвучивание: Любительский двухголосый (Lord32x Studio)
Состав дикторов: Lord32x, IREN
Фильм перевёл: М.Васильев
Автор рипа: Lord32x

MediaInfo

Общее
Полное имя : F:\Rutracker-Razdachi\Homies.2015.DVDRip.1500MB.Lord32x.Studio.avi
Формат : AVI
Формат/Информация : Audio Video Interleave
Размер файла : 1,46 Гбайт
Продолжительность : 1 ч. 36 м.
Общий поток : 2171 Кбит/сек
Программа кодирования : VirtualDubMod 1.5.10.3 | www.virtualdub-fr.org || (build 2550/release)
Библиотека кодирования : VirtualDubMod build 2550/release
Видео
Идентификатор : 0
Формат : MPEG-4 Visual
Профиль формата : Advanced Simple@L5
Параметр BVOP формата : 1
Параметр QPel формата : Нет
Параметр GMC формата : Без точки перехода
Параметр матрицы формата : Default (H.263)
Идентификатор кодека : XVID
Идентификатор кодека/Подсказка : XviD
Продолжительность : 1 ч. 36 м.
Битрейт : 1713 Кбит/сек
Ширина : 720 пикселей
Высота : 304 пикселя
Соотношение сторон : 2,35:1
Частота кадров : 25,000 кадров/сек
Цветовое пространство : YUV
Субдискретизация насыщенности : 4:2:0
Битовая глубина : 8 бит
Тип развёртки : Прогрессивная
Метод сжатия : С потерями
Бит/(Пиксели*Кадры) : 0.313
Размер потока : 1,16 Гбайт (79%)
Библиотека кодирования : XviD 1.2.1 (UTC 2008-12-04)
Аудио
Идентификатор : 1
Формат : AC-3
Формат/Информация : Audio Coding 3
Расширение режима : CM (complete main)
Параметр Endianness формата : Big
Идентификатор кодека : 2000
Продолжительность : 1 ч. 36 м.
Вид битрейта : Постоянный
Битрейт : 448 Кбит/сек
Каналы : 6 каналов
Расположение каналов : Front: L C R, Side: L R, LFE
Частота : 48,0 КГц
Битовая глубина : 16 бит
Метод сжатия : С потерями
Размер потока : 310 Мбайт (21%)
Выравнивание : Разделение по промежуткам
Продолжительность промежутка : 40 мс. (1,00 видеокадр)
Время предзагрузки промежутка : 500 мс.

Скриншоты

[Профиль] [ЛС]
Показать сообщения:    

Текущее время: Сегодня 04:59

Часовой пояс: GMT



Вы не можете начинать темы
Вы не можете отвечать на сообщения
Вы не можете редактировать свои сообщения
Вы не можете удалять свои сообщения
Вы не можете голосовать в опросах
Вы не можете прикреплять файлы к сообщениям
Вы не можете скачивать файлы