Обнажённая / Bare (2015) WEB-DL 720p | L1

 
Автор Сообщение

BOSS ®

Пол:

Стаж: 2 года 1 месяц

Сообщений: 3712

Откуда: ODESSA



Награды: 20 (Подробнее)

Top Releaser 3 (Количество: 1) Mega Releaser 2 (Количество: 1) Mega Releaser 1 (Количество: 1)
Торрент-статистика

Создавать темы 12-Ноя-2015 16:06

[Цитировать]

Информация о фильме
Название: Обнажённая
Оригинальное название: Bare
Год выхода: 2015
Жанр: драма
Режиссер: Наталия Лейте
В ролях: Дианна Агрон, Пас де ла Уэрта, Крис Зилка, Луиса Краузе, Mary Price Moore, Лора Каннингэм, Alexandra Roxo, Трэвис Хаммер, Келли Леваллен, Келли Питтман
О фильме: Драма о молодой девушке из Невады, Саре, которая завязывает романтические отношения с мистической женщиной Пеппер, и перед ней открывается новый мир, полный наркотиков, алкоголя и стриптиз клубов.

Выпущено: США / Indion Entertainment Group, Purple Milk
Продолжительность: 01:30:46
Озвучивание: Любительское (одноголосое) [datynet], перевод [lucky_ann, peyngel, anastasia_barrr и NikkieMickey]
Файл
Формат: MKV
Качество: WEB-DL 720p
Видео: MPEG-4 AVC, 3853 kb/s, 1280x536
Аудио: Russian: MP3, 256 kb/s (2 ch) / English: AC3, 384 kb/s (6 ch)
Субтитры: Russian [lucky_ann, peyngel, anastasia_barrr и NikkieMickey], English

MI

Format : Matroska
Format version : Version 2
File size : 2.91 GiB
Duration : 1h 30mn
Overall bit rate : 4 584 Kbps
Encoded date : UTC 2015-11-12 15:39:47
Writing application : mkvmerge v7.8.0 ('River Man') 32bit built on Apr 3 2015 12:11:22
Writing library : libebml v1.3.1 + libmatroska v1.4.2
Video
ID : 1
Format : AVC
Format/Info : Advanced Video Codec
Format profile : Main@L3.1
Format settings, CABAC : No
Format settings, ReFrames : 2 frames
Codec ID : V_MPEG4/ISO/AVC
Duration : 1h 30mn
Bit rate : 3 853 Kbps
Width : 1 280 pixels
Height : 536 pixels
Display aspect ratio : 2.40:1
Frame rate mode : Constant
Frame rate : 23.976 fps
Color space : YUV
Chroma subsampling : 4:2:0
Bit depth : 8 bits
Scan type : Progressive
Bits/(Pixel*Frame) : 0.234
Stream size : 2.44 GiB (84%)
Language : English
Default : Yes
Forced : No
Color range : Limited
Color primaries : BT.709
Transfer characteristics : BT.709
Matrix coefficients : BT.709
Audio #1
ID : 2
Format : MPEG Audio
Format version : Version 1
Format profile : Layer 3
Codec ID : A_MPEG/L3
Codec ID/Hint : MP3
Duration : 1h 30mn
Bit rate mode : Constant
Bit rate : 256 Kbps
Channel(s) : 2 channels
Sampling rate : 44.1 KHz
Compression mode : Lossy
Stream size : 166 MiB (6%)
Language : Russian
Default : Yes
Forced : No
Audio #2
ID : 3
Format : AC-3
Format/Info : Audio Coding 3
Mode extension : CM (complete main)
Format settings, Endianness : Big
Codec ID : A_AC3
Duration : 1h 30mn
Bit rate mode : Constant
Bit rate : 384 Kbps
Channel(s) : 6 channels
Channel positions : Front: L C R, Side: L R, LFE
Sampling rate : 48.0 KHz
Bit depth : 16 bits
Compression mode : Lossy
Stream size : 249 MiB (8%)
Language : English
Default : No
Forced : No
Text #1
ID : 4
Format : UTF-8
Codec ID : S_TEXT/UTF8
Codec ID/Info : UTF-8 Plain Text
Language : Russian
Default : No
Forced : No
Text #2
ID : 5
Format : UTF-8
Codec ID : S_TEXT/UTF8
Codec ID/Info : UTF-8 Plain Text
Language : English
Default : No
Forced : No
Menu
00:00:00.000 : en:1
00:10:24.000 : en:2
00:20:34.000 : en:3
00:27:42.000 : en:4
00:38:14.000 : en:5
00:51:35.000 : en:6
01:03:19.000 : en:7
01:12:36.000 : en:8
01:19:35.000 : en:9
01:28:16.000 : en:10

Скриншоты



[Профиль] [ЛС]
Показать сообщения:    

Текущее время: Сегодня 02:43

Часовой пояс: GMT



Вы не можете начинать темы
Вы не можете отвечать на сообщения
Вы не можете редактировать свои сообщения
Вы не можете удалять свои сообщения
Вы не можете голосовать в опросах
Вы не можете прикреплять файлы к сообщениям
Вы не можете скачивать файлы