Обмен валюты / Schimb valutar (Николае Марджиняну / Nicolae Margineanu) [2008, Румыния, драма, DVDRip] DVO (Акцент)

 
Автор Сообщение

TorrentFilm ®

Пол:

Стаж: 2 года

Сообщений: 7741



Награды: Нет

Торрент-статистика

Создавать темы 23-Окт-2015 00:11

[Цитировать]

Обмен валюты / Schimb valutar
Страна: Румыния
Жанр: драма
Год выпуска: 2008
Продолжительность: 01:35:50
Перевод: Профессиональный (двухголосый закадровый) "Акцент"
Cубтитры: нет
Режиссер: Николае Марджиняну /Nicolae Margineanu
В ролях: Космин Селеси, Алена Мунтяну, Анди Васлуяну, Дору Ана, Кока Блоос, Валентин Уритеску, Родица Ионеску, Патрик Петре, Теодор Данетти, Tatiana Ekel
Описание: Эмиль оказывается безработным, когда в небольшом городке закрывается завод, где он работал токарем. После того, как и его жена теряет работу, семья решает эмигрировать в Австралию. Эмиль продает квартиру и автомобиль, купленный на свадебные деньги, и отправляется в Бухарест, чтобы обменять леи на доллары. Прельстившись более выгодным курсом, он обменивает все деньги у валютного афериста. Но купюры оказываются фальшивыми…
Доп. информация: За проф. перевод по заказу Kino Polska на производственно-технической базе Студии "Акцент" спасибо ralf124c41+.
Сэмпл: http://multi-up.com/1072248

Качество видео: DVDRip - Исходник
Формат видео: AVI
Видео: 608x336 (1.81:1), 25 fps, XviD, 949 kbps, 0.19 bit/pixel
Аудио: 48 kHz, MPEG Layer 3, 2 ch, 128.00 kbps, DVO

MediaInfo

Общее
Полное имя : E:\Раздачи\torrentfilm.net\Obmen_valuty_745_by_max1wq.avi
Формат : AVI
Формат/Информация : Audio Video Interleave
Размер файла : 745 Мбайт
Продолжительность : 1 ч. 35 м.
Общий поток : 1087 Кбит/сек
Программа кодирования : VirtualDubMod 1.5.10.2 (build 2540/release)
Библиотека кодирования : VirtualDubMod build 2540/release
Видео
Идентификатор : 0
Формат : MPEG-4 Visual
Профиль формата : Advanced Simple@L5
Параметр BVOP формата : 1
Параметр QPel формата : Нет
Параметр GMC формата : Без точки перехода
Параметр матрицы формата : Выборочная
Идентификатор кодека : XVID
Идентификатор кодека/Подсказка : XviD
Продолжительность : 1 ч. 35 м.
Битрейт : 949 Кбит/сек
Ширина : 608 пикселей
Высота : 336 пикселей
Соотношение сторон : 16:9
Частота кадров : 25,000 кадров/сек
Цветовое пространство : YUV
Субдискретизация насыщенности : 4:2:0
Битовая глубина : 8 бит
Тип развёртки : Прогрессивная
Метод сжатия : С потерями
Бит/(Пиксели*Кадры) : 0.186
Размер потока : 651 Мбайт (87%)
Библиотека кодирования : XviD 73
Аудио
Идентификатор : 1
Формат : MPEG Audio
Версия формата : Version 1
Профиль формата : Layer 3
Идентификатор кодека : 55
Идентификатор кодека/Подсказка : MP3
Продолжительность : 1 ч. 35 м.
Вид битрейта : Постоянный
Битрейт : 128 Кбит/сек
Каналы : 2 канала
Частота : 48,0 КГц
Метод сжатия : С потерями
Размер потока : 87,7 Мбайт (12%)
Выравнивание : Соединение по промежуткам
Продолжительность промежутка : 40 мс. (1,00 видеокадр)
Время предзагрузки промежутка : 504 мс.

Скриншоты


Сравнениеhttp://torrentfilm.net/forum/viewtopic.php?t=5032829
http://screenshotcomparison.com/comparison/147696/picture:0
[Профиль] [ЛС]

Создавать темы 12-Июн-2016 08:50 (спустя 7 месяцев 20 дней)

Топик был перенесен из форума Фильмы 2011 года в форум Фильмы 2006-2008 года
Russian Mafia
 
Показать сообщения:    

Текущее время: Сегодня 00:35

Часовой пояс: GMT



Вы не можете начинать темы
Вы не можете отвечать на сообщения
Вы не можете редактировать свои сообщения
Вы не можете удалять свои сообщения
Вы не можете голосовать в опросах
Вы не можете прикреплять файлы к сообщениям
Вы не можете скачивать файлы