Обмен валюты / Schimb valutar (Николае Марджиняну / Nicolae Margineanu) [2008, Румыния, драма, DVDRip] DVO (Акцент) + Original Rum

 
Автор Сообщение

TorrentFilm ®

Пол:

Стаж: 2 года

Сообщений: 7741



Награды: Нет

Торрент-статистика

Создавать темы 22-Окт-2015 00:07

[Цитировать]

Обмен валюты / Schimb valutar
Страна: Румыния
Жанр: драма
Год выпуска: 2008
Продолжительность: 01:35:50
Перевод: Профессиональный (двухголосый закадровый) "Акцент"
Cубтитры: нет
Оригинальная аудиодорожка: румынский
Режиссер: Николае Марджиняну /Nicolae Margineanu
В ролях: Космин Селеси, Алена Мунтяну, Анди Васлуяну, Дору Ана, Кока Блоос, Валентин Уритеску, Родица Ионеску, Патрик Петре, Теодор Данетти, Tatiana Ekel
Описание: Эмиль оказывается безработным, когда в небольшом городке закрывается завод, где он работал токарем. После того, как и его жена теряет работу, семья решает эмигрировать в Австралию. Эмиль продает квартиру и автомобиль, купленный на свадебные деньги, и отправляется в Бухарест, чтобы обменять леи на доллары. Прельстившись более выгодным курсом, он обменивает все деньги у валютного афериста. Но купюры оказываются фальшивыми…
Доп. информация: За проф. перевод по заказу Kino Polska на производственно-технической базе Студии "Акцент" спасибо ralf124c41+.
Сэмпл: http://multi-up.com/1072246

Качество видео: DVDRip - Исходник
Формат видео: AVI
Видео: 704x384 (1.83:1), 25 fps, XviD, 1783 kbps, 0.26 bit/pixel
Аудио 1: 48 kHz, AC3 Dolby Digital, 2/0 (L,R) ch, 192 kbps, DVO
Аудио 2: 48 kHz, AC3 Dolby Digital, 2/0 (L,R) ch, 192 kbps, Original (Rum)

MediaInfo

Общее
Полное имя : E:\Раздачи\torrentfilm.net\Obmen_valuty_1.46_by_max1wq.avi
Формат : AVI
Формат/Информация : Audio Video Interleave
Размер файла : 1,46 Гбайт
Продолжительность : 1 ч. 35 м.
Общий поток : 2183 Кбит/сек
Программа кодирования : VirtualDubMod 1.5.10.2 (build 2540/release)
Библиотека кодирования : VirtualDubMod build 2540/release
Видео
Идентификатор : 0
Формат : MPEG-4 Visual
Профиль формата : Advanced Simple@L5
Параметр BVOP формата : 1
Параметр QPel формата : Нет
Параметр GMC формата : Без точки перехода
Параметр матрицы формата : Выборочная
Идентификатор кодека : XVID
Идентификатор кодека/Подсказка : XviD
Продолжительность : 1 ч. 35 м.
Битрейт : 1784 Кбит/сек
Ширина : 704 пикселя
Высота : 384 пикселя
Соотношение сторон : 1,85:1
Частота кадров : 25,000 кадров/сек
Цветовое пространство : YUV
Субдискретизация насыщенности : 4:2:0
Битовая глубина : 8 бит
Тип развёртки : Прогрессивная
Метод сжатия : С потерями
Бит/(Пиксели*Кадры) : 0.264
Размер потока : 1,19 Гбайт (82%)
Библиотека кодирования : XviD 73
Аудио #1
Идентификатор : 1
Формат : AC-3
Формат/Информация : Audio Coding 3
Расширение режима : CM (complete main)
Параметр Endianness формата : Big
Идентификатор кодека : 2000
Продолжительность : 1 ч. 35 м.
Вид битрейта : Постоянный
Битрейт : 192 Кбит/сек
Каналы : 2 канала
Расположение каналов : Front: L R
Частота : 48,0 КГц
Метод сжатия : С потерями
Размер потока : 132 Мбайт (9%)
Выравнивание : Разделение по промежуткам
Продолжительность промежутка : 40 мс. (1,00 видеокадр)
Время предзагрузки промежутка : 500 мс.
Аудио #2
Идентификатор : 2
Формат : AC-3
Формат/Информация : Audio Coding 3
Расширение режима : CM (complete main)
Параметр Endianness формата : Big
Идентификатор кодека : 2000
Продолжительность : 1 ч. 35 м.
Вид битрейта : Постоянный
Битрейт : 192 Кбит/сек
Каналы : 2 канала
Расположение каналов : Front: L R
Частота : 48,0 КГц
Метод сжатия : С потерями
Размер потока : 132 Мбайт (9%)
Выравнивание : Разделение по промежуткам
Продолжительность промежутка : 40 мс. (1,00 видеокадр)
Время предзагрузки промежутка : 500 мс.

Скриншоты


[Профиль] [ЛС]

Создавать темы 12-Июн-2016 08:50 (спустя 7 месяцев 21 день)

Топик был перенесен из форума Фильмы 2011 года в форум Фильмы 2006-2008 года
Russian Mafia
 
Показать сообщения:    

Текущее время: Сегодня 08:19

Часовой пояс: GMT



Вы не можете начинать темы
Вы не можете отвечать на сообщения
Вы не можете редактировать свои сообщения
Вы не можете удалять свои сообщения
Вы не можете голосовать в опросах
Вы не можете прикреплять файлы к сообщениям
Вы не можете скачивать файлы