Обмен валюты / Schimb valutar (Николае Марджиняну / Nicolae Margineanu) [2008, Румыния, драма, DVB-AVC] DVO (Kino Polska)

 
Автор Сообщение

TorrentFilm ®

Пол:

Стаж: 2 года

Сообщений: 7741



Награды: Нет

Торрент-статистика

Создавать темы 01-Июл-2015 00:10

[Цитировать]

Обмен валюты
Schimb valutar- Страна: Румыния
Жанр: драма
Год выпуска: 2008
Продолжительность: 01:35:23Перевод: Профессиональный (двухголосый закадровый) по заказу Kino Polska на производственно-технической базе Студии "Акцент"
Cубтитры: нет
Режиссер: Николае Марджиняну / Nicolae Margineanu
В ролях: Козмин Селеси / Cosmin Selesi (Emil), Альона Мунтяну / Aliona Munteanu (Lili), Анди Васлуяну / Andi Vasluianu (Streche), Дору Ана / Doru Ana (Plutonier Neagu), Патрик Петре / Patrik Petre (Dorin)
Описание: Эмиль оказывается безработным, когда в небольшом городке закрывается завод, где он работал токарем. После того, как и его жена теряет работу, семья решает эмигрировать в Австралию. Эмиль продает квартиру и автомобиль, купленный на свадебные деньги, и отправляется в Бухарест, чтобы обменять левы на доллары. Прельстившись более выгодным курсом, он обменивает все деньги у валютного афериста. Но купюры оказываются фальшивыми…
Доп. информация: Filmbox Arthouse IPTV
Награды: 4 номинации Gopos Awards, Romania 2009 (лучший актер - Cosmin Selesi, актриса второго плана - Aliona Munteanu, сценарий, музыка).

Качество видео: DVB-AVC
Формат видео: MKV
Видео: AVC (H.264), 720x576@1024x576 (16:9), 25 fps, ~959 kbps avg, 0.096 bit/pixel
Аудио: MPEG Audio 2, 2 ch, 48 kHz, ~128.00 kbps avg

MediaInfo

ОбщееУникальный идентификатор : 202842434073616511924481071245130833968 (0x989A082291993D338F405FF543FDA030)Полное имя : F:\My Torrents 3\[apreder]Schimb_valutar(2008)DVB.mkvФормат : MatroskaВерсия формата : Version 2Размер файла : 757 МбайтПродолжительность : 1 ч. 35 м.Общий поток : 1109 Кбит/секДата кодирования : UTC 2015-06-28 09:28:37Программа кодирования : mkvmerge v8.1.0 ('Psychedelic Postcard') 64bitБиблиотека кодирования : libebml v1.3.1 + libmatroska v1.4.2
ВидеоИдентификатор : 2Формат : AVCФормат/Информация : Advanced Video CodecПрофиль формата : Main@L3Параметр CABAC формата : ДаПараметр ReFrames формата : 3 кадраИдентификатор кодека : V_MPEG4/ISO/AVCПродолжительность : 1 ч. 35 м.Битрейт : 959 Кбит/секШирина : 720 пикселейВысота : 576 пикселейСоотношение сторон : 16:9Соотношение сторон в оригинале : 16:9Режим частоты кадров : ПостоянныйЧастота кадров : 22,727 кадра/секЧастота кадров в оригинале : 25,000 кадров/секСтандарт вещания : ComponentЦветовое пространство : YUVСубдискретизация насыщенности : 4:2:0Битовая глубина : 8 битТип развёртки : ЧересстрочнаяПорядок развёртки : Верхнее поле первоеБит/(Пиксели*Кадры) : 0.102Размер потока : 654 Мбайт (86%)Default : ДаForced : Нетcolour_range : LimitedОсновные цвета : BT.601 PALХарактеристики трансфера : BT.470 System B, BT.470 System GКоэффициенты матрицы : BT.601
АудиоИдентификатор : 1Формат : MPEG AudioВерсия формата : Version 1Профиль формата : Layer 2Идентификатор кодека : A_MPEG/L2Идентификатор кодека/Подсказка : MP2Продолжительность : 1 ч. 35 м.Вид битрейта : ПостоянныйБитрейт : 128 Кбит/секКаналы : 2 каналаЧастота : 48,0 КГцМетод сжатия : С потерямиЗадержка видео : -17 мс.Размер потока : 87,3 Мбайт (12%)Язык : RussianDefault : ДаForced : Нет

Скриншот c названием фильма

Скриншоты


Резервные скриншоты


-[2'403]
[Профиль] [ЛС]

Создавать темы 06-Авг-2015 22:25 (спустя 1 месяц 5 дней)

Топик был перенесен из форума Фильмы до 2014 года в форум Фильмы до 2012 года
sergej644
 

Создавать темы 12-Июн-2016 08:52 (спустя 11 месяцев 11 дней)

Топик был перенесен из форума Фильмы 2011 года в форум Фильмы 2006-2008 года
Russian Mafia
 
Показать сообщения:    

Текущее время: Сегодня 05:17

Часовой пояс: GMT



Вы не можете начинать темы
Вы не можете отвечать на сообщения
Вы не можете редактировать свои сообщения
Вы не можете удалять свои сообщения
Вы не можете голосовать в опросах
Вы не можете прикреплять файлы к сообщениям
Вы не можете скачивать файлы