Обменяйтесь кольцами (Юлия Краснова) [2012, Мелодрама, HDTV, 1080i]

 
Автор Сообщение

painkiller ®

Стаж: 2 года 3 месяца

Сообщений: 582



Награды: Нет

Торрент-статистика

Создавать темы 14-Авг-2014 09:19

[Цитировать]

Обменяйтесь кольцами
Жанр: Мелодрама
Год выпуска: 2012
Продолжительность: 01:35:02
Режиссёр: Юлия Краснова
В ролях: Анастасия Стежко, Елена Яковлева, Борис Щербаков, Юрий Цурило, Мария Мина, Ольга Волкова, Татьяна Аугшкап, Семен Трескунов, Марина Могилевская, Иван Егоров, Александра Назарова и другие.
Описание: В жизни Арины чёрная полоса. Её отец ушёл к молодой любовнице и оставил семью без гроша, а с матери угрозами требует крупную сумму бывший работодатель. Девушка выбивается из сил на работе, но с зарплатой курьера о возврате долга не может быть и речи. Вконец отчаявшись, Арина решает забыть о своих светлых мечтах и спасти семью, торгуя своей красотой...
Релиз -

Запись чистая. Без посторонних надписей. Выкладывается, как есть.
Семпл: http://multi-up.com/840069
Качество видео: HDTV 1080i
Формат видео: TS
Видео: AVC, 1920x1080 (16:9), 25 fps, 7853 Kbps, 0.151 bit/pixel
Аудио: MPEG Audio, 48 kHz, stereo, 192 Kbps

MediaInfo

GeneralID : 1 (0x1)Complete name : N:\ВЫКЛАДКА\HDTV\Фильмы\Обменяйтесь кольцами (2012, Мелодрама, HDTV) (MYDIMKA).tsFormat : MPEG-TSFile size : 5.61 GiBDuration : 1h 35mnOverall bit rate mode : VariableOverall bit rate : 8 446 Kbps
VideoID : 2911 (0xB5F)Menu ID : 1 (0x1)Format : AVCFormat/Info : Advanced Video CodecFormat profile : High@L4.0Format settings, CABAC : YesFormat settings, ReFrames : 3 framesCodec ID : 27Duration : 1h 35mnBit rate : 7 835 KbpsWidth : 1 920 pixelsHeight : 1 080 pixelsDisplay aspect ratio : 16:9Frame rate : 25.000 fpsColor space : YUVChroma subsampling : 4:2:0Bit depth : 8 bitsScan type : MBAFFBits/(Pixel*Frame) : 0.151Stream size : 5.20 GiB (93%)
AudioID : 2912 (0xB60)Menu ID : 1 (0x1)Format : MPEG AudioFormat version : Version 1Format profile : Layer 2Codec ID : 3Duration : 1h 35mnBit rate mode : ConstantBit rate : 192 KbpsChannel(s) : 2 channelsSampling rate : 48.0 KHzCompression mode : LossyStream size : 131 MiB (2%)Language : Russian

Скриншот c названием фильма

Скриншоты


[Профиль] [ЛС]
Показать сообщения:    

Текущее время: Сегодня 22:09

Часовой пояс: GMT



Вы не можете начинать темы
Вы не можете отвечать на сообщения
Вы не можете редактировать свои сообщения
Вы не можете удалять свои сообщения
Вы не можете голосовать в опросах
Вы не можете прикреплять файлы к сообщениям
Вы не можете скачивать файлы