Обман / Absolute Deception (2013) BDRip 720p от MediaClub | P, L1

 
Автор Сообщение

sergej644 ®

Пол:

Стаж: 4 года 11 месяцев

Сообщений: 6045

Откуда: Soviet Union



Награды: Нет

Торрент-статистика

Создавать темы 13-Фев-2015 22:10

[Цитировать]

Информация о фильме
Название: Обман
Оригинальное название: Absolute Deception
Год выхода: 2013
Жанр: Боевик
Режиссер: Брайан Тренчард-Смит
В ролях: Кьюба Гудинг мл., Эммануэль Вожье, Эверт МакКуин, Ти Смит, Джефф Гэннон, Брэд МакМюррей, Келли Эткинсон, Шон Эдвард Фрейзер, Трой МакКайндер, Рэймонд Мэсси
О фильме:
Овдовевшая девушка-репортер прибегает к помощи федерального агента, чтобы расследовать тайны ее покойного мужа, но вместе с ним она становится мишенью неизвестных злоумышленников…

Страна: США
Студия: Limelight International Media Entertainment, Voltage Pictures
Продолжительность: 01:32:00
Перевод: Профессиональный многоголосый, любительский одноголосый (dimetriu$$$)
Файл
Кодек: x264
Качество: BDRip 720p
Видео: MPEG-4 AVC, 4500 Кбит/с, 1280x720, 23.976 кадр/с
Звук:
Аудио #1: Русский (AC3, 6 ch, 448 Кбит/с) / Профессиональный многоголосый
Аудио #2: Русский (AC3, 2 ch, 192 Кбит/с) / Любительский одноголосый (dimetriu$$$)
Аудио #3: Английский (DTS, 6 ch, 1509 Кбит/с)
Субтитры: Русские, английские

Ограничение

Рейтинг R - Детям до 17 лет обязательно присутствие родителей

О релизе

Рип - Викс
Синхронизация переводов - Викс
Сохранены оригинальные чаптеры как на Blu-Ray

MediaInfo

Общее
Уникальный идентификатор                 : 204657515596020327412381738535670698263 (0x99F79A9036B8E8C092D9CA132F0AD117)
Полное имя                               : I:Готовые новые релизыAbsolute.Deception.2013.x264.BDRip.720p-MediaClub.mkv
Формат                                   : Matroska
Версия формата                           : Version 2
Размер файла                             : 4,28 Гбайт
Продолжительность                        : 1 ч. 32 м.
Общий поток                              : 6653 Кбит/сек
Название фильма                          : Absolute Deception (2013) BDRip 720p -MediaClub- [Викс]
Дата кодирования                         : UTC 2015-02-13 17:43:08
Программа кодирования                    : mkvmerge v5.8.0 ('No Sleep / Pillow') built on Sep  2 2012 15:37:04
Библиотека кодирования                   : libebml v1.2.3 + libmatroska v1.3.0
Видео
Идентификатор                            : 1
Формат                                   : AVC
Формат/Информация                        : Advanced Video Codec
Профиль формата                          : High@L4.1
Параметр CABAC формата                   : Да
Параметр ReFrames формата                : 9 кадров
Идентификатор кодека                     : V_MPEG4/ISO/AVC
Продолжительность                        : 1 ч. 32 м.
Битрейт                                  : 4500 Кбит/сек
Ширина                                   : 1280 пикселей
Высота                                   : 720 пикселей
Соотношение сторон                       : 16:9
Режим частоты кадров                     : Постоянный
Частота кадров                           : 23,976 кадра/сек
Цветовое пространство                    : YUV
Субдискретизация насыщенности            : 4:2:0
Битовая глубина                          : 8 бит
Тип развёртки                            : Прогрессивная
Бит/(Пиксели*Кадры)                      : 0.204
Размер потока                            : 2,81 Гбайт (66%)
Библиотека кодирования                   : x264 core 125 r2208 d9d2288
Настройки программы                      : cabac=1 / ref=9 / deblock=1:-3:-3 / analyse=0x3:0x133 / me=umh / subme=11 / psy=1 / psy_rd=1.00:0.25 / mixed_ref=1 / me_range=48 / chroma_me=1 / trellis=2 / 8x8dct=1 / cqm=0 / deadzone=21,11 / fast_pskip=0 / chroma_qp_offset=-4 / threads=12 / lookahead_threads=2 / sliced_threads=0 / nr=0 / decimate=1 / interlaced=0 / bluray_compat=0 / constrained_intra=0 / bframes=8 / b_pyramid=2 / b_adapt=2 / b_bias=0 / direct=3 / weightb=1 / open_gop=0 / weightp=2 / keyint=240 / keyint_min=23 / scenecut=40 / intra_refresh=0 / rc=2pass / mbtree=0 / bitrate=4500 / ratetol=1.0 / qcomp=0.60 / qpmin=0 / qpmax=69 / qpstep=4 / cplxblur=20.0 / qblur=0.5 / ip_ratio=1.40 / pb_ratio=1.30 / aq=1:1.00
Язык                                     : English
Default                                  : Да
Forced                                   : Нет
Аудио #1
Идентификатор                            : 2
Формат                                   : AC-3
Формат/Информация                        : Audio Coding 3
Расширение режима                        : CM (complete main)
Параметр Endianness формата              : Big
Идентификатор кодека                     : A_AC3
Продолжительность                        : 1 ч. 32 м.
Вид битрейта                             : Постоянный
Битрейт                                  : 448 Кбит/сек
Каналы                                   : 6 каналов
Расположение каналов                     : Front: L C R, Side: L R, LFE
Частота                                  : 48,0 КГц
Битовая глубина                          : 16 бит
Метод сжатия                             : С потерями
Размер потока                            : 295 Мбайт (7%)
Заголовок                                : PM
Язык                                     : Russian
Default                                  : Да
Forced                                   : Нет
Аудио #2
Идентификатор                            : 3
Формат                                   : AC-3
Формат/Информация                        : Audio Coding 3
Расширение режима                        : CM (complete main)
Параметр Endianness формата              : Big
Идентификатор кодека                     : A_AC3
Продолжительность                        : 1 ч. 32 м.
Вид битрейта                             : Постоянный
Битрейт                                  : 192 Кбит/сек
Каналы                                   : 2 канала
Расположение каналов                     : Front: L R
Частота                                  : 48,0 КГц
Битовая глубина                          : 16 бит
Метод сжатия                             : С потерями
Размер потока                            : 126 Мбайт (3%)
Заголовок                                : LO [dimetriu$$$]
Язык                                     : Russian
Default                                  : Нет
Forced                                   : Нет
Аудио #3
Идентификатор                            : 4
Формат                                   : DTS
Формат/Информация                        : Digital Theater Systems
Режим                                    : 16
Параметр Endianness формата              : Big
Идентификатор кодека                     : A_DTS
Продолжительность                        : 1 ч. 32 м.
Вид битрейта                             : Постоянный
Битрейт                                  : 1509 Кбит/сек
Каналы                                   : 6 каналов
Расположение каналов                     : Front: L C R, Side: L R, LFE
Частота                                  : 48,0 КГц
Битовая глубина                          : 24 бит
Метод сжатия                             : С потерями
Размер потока                            : 993 Мбайт (23%)
Язык                                     : English
Default                                  : Нет
Forced                                   : Нет
Текст #1
Идентификатор                            : 5
Формат                                   : UTF-8
Идентификатор кодека                     : S_TEXT/UTF8
Идентификатор кодека/Информация          : UTF-8 Plain Text
Язык                                     : Russian
Default                                  : Нет
Forced                                   : Нет
Текст #2
Идентификатор                            : 6
Формат                                   : UTF-8
Идентификатор кодека                     : S_TEXT/UTF8
Идентификатор кодека/Информация          : UTF-8 Plain Text
Язык                                     : English
Default                                  : Нет
Forced                                   : Нет
Меню
00:00:00.000                             : en:Chapter 1
00:04:13.127                             : en:Chapter 2
00:06:36.270                             : en:Chapter 3
00:12:59.779                             : en:Chapter 4
00:17:26.962                             : en:Chapter 5
00:21:58.692                             : en:Chapter 6
00:27:18.803                             : en:Chapter 7
00:32:08.718                             : en:Chapter 8
00:35:12.151                             : en:Chapter 9
00:44:02.389                             : en:Chapter 10
00:48:45.130                             : en:Chapter 11
00:50:58.096                             : en:Chapter 12
00:53:06.683                             : en:Chapter 13
00:56:08.531                             : en:Chapter 14
01:03:20.004                             : en:Chapter 15
01:10:48.410                             : en:Chapter 16
01:14:16.410                             : en:Chapter 17
01:18:27.994                             : en:Chapter 18
01:26:37.400                             : en:Chapter 19
01:27:57.105                             : en:Chapter 20
Семпл

Скриншоты

[Профиль] [ЛС]
Показать сообщения:    

Текущее время: Сегодня 16:27

Часовой пояс: GMT



Вы не можете начинать темы
Вы не можете отвечать на сообщения
Вы не можете редактировать свои сообщения
Вы не можете удалять свои сообщения
Вы не можете голосовать в опросах
Вы не можете прикреплять файлы к сообщениям
Вы не можете скачивать файлы