Облачный атлас / Cloud Atlas (2012) BDRip 1080p

 
Автор Сообщение

Russian Mafia ®

Пол:

Стаж: 1 год 8 месяцев

Сообщений: 4257



Награды: 10 (Подробнее)

Top Releaser 2 (Количество: 1) Top Releaser 3 (Количество: 1) Top Releaser 5 (Количество: 1)
Торрент-статистика

Создавать темы 08-Сен-2015 10:38

[Цитировать]

Информация о фильме
Название: Облачный атлас
Оригинальное название: Cloud Atlas
Год выхода: 2012
Жанр: фантастика, драма, детектив
Режиссер: Лана Вачовски, Том Тыквер, Энди Вачовски
В ролях: Том Хэнкс, Холли Берри, Джим Броудбент, Хьюго Уивинг, Джим Стёрджесс, Пэ Дуна, Бен Уишоу, Джеймс Д’Арси, Жу Жу, Кит Дэвид
О фильме: Шесть историй — пять реинкарнаций, происходящих в разное время, тесно переплетаются между собой…

Выпущено: Cloud Atlas Productions
Продолжительность: 02:52:07
Перевод: Дублированный (Лицензия BD-RUS)
Файл
Кодек: x264
Качество: BDRip (источник: Blu-ray Disc)
Видео: 1920x816 (2,35:1), 23.976 fps, 6006 kbps
Аудио: AC-3, 6 ch, 448 kbps
Скачать: сэмпл
Скриншоты

MI

Общее
Уникальный идентификатор : 195739857087272691081742833334275764273 (0x9342200D985C51EFBF92AC5761577031)
Полное имя : Cloud.Atlas.2012.BDRip.1080p.Rus.mkv
Формат : Matroska
Версия формата : Version 2
Размер файла : 7,76 Гбайт
Продолжительность : 2 ч. 52 м.
Общий поток : 6455 Кбит/сек
Название фильма : Облачный атлас / Cloud Atlas (2012)
Дата кодирования : UTC 2012-12-18 06:21:07
Программа кодирования : mkvmerge v5.8.0 ('No Sleep / Pillow') built on Sep 2 2012 15:37:04
Библиотека кодирования : libebml v1.2.3 + libmatroska v1.3.0
Видео
Идентификатор : 1
Формат : AVC
Формат/Информация : Advanced Video Codec
Профиль формата : High@L4.1
Параметр CABAC формата : Да
Параметр ReFrames формата : 5 кадров
Идентификатор кодека : V_MPEG4/ISO/AVC
Продолжительность : 2 ч. 52 м.
Битрейт : 6006 Кбит/сек
Ширина : 1920 пикселей
Высота : 816 пикселей
Соотношение сторон : 2,35:1
Частота кадров : 23,976 кадра/сек
Цветовое пространство : YUV
Субдискретизация насыщенности : 4:2:0
Битовая глубина : 8 бит
Тип развёртки : Прогрессивная
Бит/(Пиксели*Кадры) : 0.160
Размер потока : 7,07 Гбайт (91%)
Заголовок : Release by AlexKa
Библиотека кодирования : x264 core 129 r2230 1cffe9f
Настройки программы : cabac=1 / ref=5 / deblock=1:0:0 / analyse=0x3:0x133 / me=umh / subme=10 / psy=1 / psy_rd=1.00:0.00 / mixed_ref=1 / me_range=32 / chroma_me=1 / trellis=2 / 8x8dct=1 / cqm=0 / deadzone=21,11 / fast_pskip=0 / chroma_qp_offset=-2 / threads=12 / lookahead_threads=2 / sliced_threads=0 / nr=0 / decimate=0 / interlaced=0 / bluray_compat=0 / constrained_intra=0 / bframes=6 / b_pyramid=2 / b_adapt=2 / b_bias=0 / direct=3 / weightb=1 / open_gop=0 / weightp=2 / keyint=240 / keyint_min=23 / scenecut=40 / intra_refresh=0 / rc=2pass / mbtree=0 / bitrate=6006 / ratetol=1.0 / qcomp=0.60 / qpmin=0 / qpmax=69 / qpstep=4 / cplxblur=20.0 / qblur=0.5 / ip_ratio=1.40 / pb_ratio=1.30 / aq=1:0.80
Язык : English
Аудио
Идентификатор : 2
Формат : AC-3
Формат/Информация : Audio Coding 3
Расширение режима : CM (complete main)
Идентификатор кодека : A_AC3
Продолжительность : 2 ч. 52 м.
Вид битрейта : Постоянный
Битрейт : 448 Кбит/сек
Каналы : 6 каналов
Расположение каналов : Front: L C R, Side: L R, LFE
Частота : 48,0 КГц
Битовая глубина : 16 бит
Метод сжатия : С потерями
Размер потока : 552 Мбайт (7%)
Заголовок : Rus
Язык : Russian
Меню
00:00:00.000 : :Chapter 01
00:05:23.698 : :Chapter 02
00:14:48.554 : :Chapter 03
00:24:37.559 : :Chapter 04
00:31:45.361 : :Chapter 05
00:38:48.284 : :Chapter 06
00:46:39.087 : :Chapter 07
00:54:30.684 : :Chapter 08
00:59:25.937 : :Chapter 09
01:06:08.381 : :Chapter 10
01:12:34.266 : :Chapter 11
01:20:25.153 : :Chapter 12
01:26:51.456 : :Chapter 13
01:33:15.006 : :Chapter 14
01:39:44.645 : :Chapter 15
01:45:39.374 : :Chapter 16
01:53:32.388 : :Chapter 17
02:00:03.070 : :Chapter 18
02:09:22.921 : :Chapter 19
02:16:09.870 : :Chapter 20
02:22:03.431 : :Chapter 21
02:29:16.656 : :Chapter 22
02:37:02.246 : :Chapter 23
02:42:50.218 : :Chapter 24
02:52:07.150 : :Chapter 25

x264

x264 [info]: frame I:2198 Avg QP:17.75 size:199918
x264 [info]: frame P:51386 Avg QP:19.82 size: 67760
x264 [info]: frame B:194024 Avg QP:22.27 size: 19744
[Профиль] [ЛС]
Кто просматривает тему:

Форум Тема Автор Размер
Программы OneDrive 3.3.1 Final [Ru] - Облачное хранилище от Microsoft Garik014 28 MB
Viasat History Viasat History: Разоблаченные монументы (Великие памятники архитектуры) / Monuments revealed [сезон 1 серия 1-3 из 3] (Olivier Julien, Pascal Cuissot, Gary Glassman) [2014 г., Документ... skorpionN 3.53 GB
3D Мультфильмы Облачно... 2: Месть ГМО в 3Д / Cloudy with a Chance of Meatballs 2 3D (Коуди Камерон, Крис Пирн / Cody Cameron, Kris Pearn) [2013, Мультфильм, Фантастика, Комедия, Семейный, BDrip-AVC] Half OverUnder... reversefile 7.01 GB
Фильмы (HD DVD, Blu-ray и BDRemux) Облачный атлас / Cloud Atlas (2012) BDRemux 1080i от HDClub | D, А | Лицензия | Open Matte sergej644 45.46 GB
Фильмы (HD Rips | 720p, 1080p) Облачный атлас / Cloud Atlas (2012) BDRip 720p | Лицензия Russian Mafia 7.71 GB
Фильмы 2012 года Облачный атлас / Cloud Atlas (2012) BDRip от HQCLUB | US Transfer | Лицензия Russian Mafia 2.9 GB
Фильмы 2012 года Облачный атлас / Cloud Atlas (2012) DVDRip | Смешной перевод BOSS 2.21 GB
Фильмы (HD Rips | 720p, 1080p) Разоблачение / Disclosure (1994) BDRip 720p от HQ-ViDEO sergej644 6.61 GB
Показать сообщения:    

Текущее время: Сегодня 09:55

Часовой пояс: GMT



Вы не можете начинать темы
Вы не можете отвечать на сообщения
Вы не можете редактировать свои сообщения
Вы не можете удалять свои сообщения
Вы не можете голосовать в опросах
Вы не можете прикреплять файлы к сообщениям
Вы не можете скачивать файлы