Облачно... 2: Месть ГМО в 3Д / Cloudy with a Chance of Meatballs 2 3D (Коуди Камерон, Крис Пирн / Cody Cameron, Kris Pearn) [2013, Мультфильм, Фантастика, Комедия, Семейный, BDrip-AVC] Half OverUnder / Вертикальная анаморфная стереопара

 
Автор Сообщение

reversefile ®

Пол:

Стаж: 4 года 5 месяцев

Сообщений: 842

Откуда: ReverseFile.org



Награды: Нет

Торрент-статистика

Создавать темы 24-Июл-2014 17:58

[Цитировать]

-Облачно... 2: Месть ГМО
Cloudy with a Chance of Meatballs 2

Год выпуска: 2013
Страна: США (Columbia Pictures, Sony Pictures Animation)
Жанр: Мультфильм, Фантастика, Фэнтези, Комедия, Семейный
Продолжительность: 01:34:51
Перевод: Профессиональные дублированые (лицензия) - Русский и Украинский
Режиссёр: Коуди Камерон, Крис Пирн / Cody Cameron, Kris Pearn
Роли озвучивали [дублировали]: Билл Хейдер [Александр Пушной] (Flint Lockwood), Анна Фэрис (Sam Sparks), Джеймс Каан (Tim Lockwood), Уилл Форте [Игорь Угольников] (Chester V), Энди Сэмберг (Brent McHale), Бенджамин Брэтт (Manny), Нил Патрик Харрис (Steve), Терри Крюс (Earl Devereaux), Кристен Шол (Barb), Коуди Камерон (Barry, Dill Pickle)
Описание: Все жители острова Поплавок покинули родной дом после событий предыдущего мультфильма. Главный герой Флинт Локвуд теперь работает в компании The Live Corp на своего кумира Честера. Но ему придется оставить свой пост когда он узнает, что его печально-известная машина все ещё работает и производит на свет опасных гибридов. Флинту предстоит ещё раз спасти мир и не дать коварной машине распространить громадную еду по всему миру.-Премьера: 26 сентября 2013 (24 октября 2013)
Релиз на Blu-Ray (DVD) (Россия): 11 февраля 2014
Бюджет: $78 000 000
Кассовые сборы: $260 831 595

. .
-Качество: BDRip (by Ash61)
Контейнер: MKV
Формат 3D: Half OverUnder / Вертикальная анаморфная стереопара
Порядок ракурсов: левый ракурс первый
Видео кодек: x264
Аудио кодек: AC3-Видео: AVC / 23,976 fps / 1920х1080p / ~8.5 Mbps
Аудио:
#1 - Русский / AC3 / 48 KHz / 5.1 ch / 640 Kbps (Дубляж - BD 3D CEE)
#2 - Украинский / AC3 / 48 KHz / 5.1 ch / 640 Kbps (Дубляж - BD 3D CEE)
#3 - Английский / AC3 / 48 KHz / 5.1 ch / 640 Kbps (Original - BD 3D)
Субтитры: (SRT)
Внешние (UTF-8):
#1 - Русские Форсированные (BD 3D CEE) (включены по умолчанию)
#2 - Русские Полные (неизвестного происхождения)
#3 - English Full
#4 - English SDH
#5 - English SDH-Colored
Вшитые (softsub):
#1 - Русские Форсированные (BD 3D CEE) (включены по умолчанию)

MediaInfo

General
Unique ID : 221532620497104456936510835081970377154 (0xA6A9A178A948476881064ED05246E1C2)
Complete name : E:\CloudyWithAChanceOfMeatballs2(2013)3D-halfOU(Ash61)\CloudyWithAChanceOfMeatballs2(2013)3D-halfOU(Ash61).mkv
Format : Matroska
Format version : Version 2
File size : 7.01 GiB
Duration : 1h 34mn
Overall bit rate : 10.6 Mbps
Movie name : Облачно... 2: Месть ГМО / Cloudy with a Chance of Meatballs 2 (2013) 3D
Encoded date : UTC 2014-02-06 17:41:49
Writing application : mkvmerge v5.8.0 ('No Sleep / Pillow') built on Sep 2 2012 15:37:04
Writing library : libebml v1.2.3 + libmatroska v1.3.0
Video
ID : 1
Format : AVC
Format/Info : Advanced Video Codec
Format profile : High@L4.1
Format settings, CABAC : Yes
Format settings, ReFrames : 4 frames
Codec ID : V_MPEG4/ISO/AVC
Duration : 1h 34mn
Bit rate : 8 451 Kbps
Width : 1 920 pixels
Height : 1 080 pixels
Display aspect ratio : 16:9
Frame rate mode : Constant
Frame rate : 23.976 fps
Color space : YUV
Chroma subsampling : 4:2:0
Bit depth : 8 bits
Scan type : Progressive
Bits/(Pixel*Frame) : 0.170
Stream size : 5.60 GiB (80%)
Title : BDRip by Ash61
Writing library : x264 core 129 r2245 bc13772
Encoding settings : cabac=1 / ref=4 / deblock=1:-3:-3 / analyse=0x3:0x113 / me=umh / subme=10 / psy=1 / psy_rd=1.00:0.15 / mixed_ref=1 / me_range=32 / chroma_me=1 / trellis=2 / 8x8dct=1 / cqm=0 / deadzone=21,11 / fast_pskip=1 / chroma_qp_offset=-3 / threads=12 / lookahead_threads=2 / sliced_threads=0 / nr=0 / decimate=1 / interlaced=0 / bluray_compat=0 / constrained_intra=0 / bframes=8 / b_pyramid=2 / b_adapt=2 / b_bias=0 / direct=3 / weightb=1 / open_gop=0 / weightp=2 / keyint=250 / keyint_min=23 / scenecut=40 / intra_refresh=0 / rc_lookahead=60 / rc=crf / mbtree=1 / crf=17.0 / qcomp=0.70 / qpmin=0 / qpmax=69 / qpstep=4 / vbv_maxrate=40000 / vbv_bufsize=30000 / crf_max=0.0 / nal_hrd=none / frame-packing=4 / ip_ratio=1.40 / aq=1:0.70
Language : English
Default : Yes
Forced : No
Audio #1
ID : 2
Format : AC-3
Format/Info : Audio Coding 3
Mode extension : CM (complete main)
Format settings, Endianness : Big
Codec ID : A_AC3
Duration : 1h 34mn
Bit rate mode : Constant
Bit rate : 640 Kbps
Channel(s) : 6 channels
Channel positions : Front: L C R, Side: L R, LFE
Sampling rate : 48.0 KHz
Bit depth : 16 bits
Compression mode : Lossy
Stream size : 434 MiB (6%)
Title : Дубляж - BD 3D CEE
Language : Russian
Default : Yes
Forced : No
Audio #2
ID : 3
Format : AC-3
Format/Info : Audio Coding 3
Mode extension : CM (complete main)
Format settings, Endianness : Big
Codec ID : A_AC3
Duration : 1h 34mn
Bit rate mode : Constant
Bit rate : 640 Kbps
Channel(s) : 6 channels
Channel positions : Front: L C R, Side: L R, LFE
Sampling rate : 48.0 KHz
Bit depth : 16 bits
Compression mode : Lossy
Stream size : 434 MiB (6%)
Title : Дубляж - BD 3D CEE
Language : Ukrainian
Default : No
Forced : No
Audio #3
ID : 4
Format : AC-3
Format/Info : Audio Coding 3
Mode extension : CM (complete main)
Format settings, Endianness : Big
Codec ID : A_AC3
Duration : 1h 34mn
Bit rate mode : Constant
Bit rate : 640 Kbps
Channel(s) : 6 channels
Channel positions : Front: L C R, Side: L R, LFE
Sampling rate : 48.0 KHz
Bit depth : 16 bits
Compression mode : Lossy
Stream size : 434 MiB (6%)
Title : Original - BD 3D
Language : English
Default : No
Forced : No
Text
ID : 5
Format : UTF-8
Codec ID : S_TEXT/UTF8
Codec ID/Info : UTF-8 Plain Text
Title : Форсированные
Language : Russian
Default : Yes
Forced : No
Menu
00:00:00.000 : :1
00:07:12.014 : :2
00:12:51.520 : :3
00:18:50.420 : :4
00:25:58.390 : :5
00:31:57.081 : :6
00:36:53.252 : :7
00:39:28.908 : :8
00:41:07.840 : :9
00:45:28.016 : :10
00:49:48.693 : :11
00:54:41.403 : :12
01:00:39.886 : :13
01:06:47.920 : :14
01:12:54.953 : :15
01:21:25.588 : :16

Для оценки 3Д - Анимированные скрины















Знаете ли вы, что...:

Вместо Мистера Ти Эрла озвучил Терри Крюс. Мистеру Ти предлагали озвучить этого персонажа в сиквеле, но он отказался. Большинство движений и мимика этого персонажа были взяты с экранного образа Терри Крюса.
6.02.2014. Релиз обновлён - русская дорога заменена на лицензию, добавлены украинская и пакет субтитров.
Желающие, скачайте заново торрент-файл.
[Профиль] [ЛС]
Показать сообщения:    

Текущее время: Сегодня 07:15

Часовой пояс: GMT



Вы не можете начинать темы
Вы не можете отвечать на сообщения
Вы не можете редактировать свои сообщения
Вы не можете удалять свои сообщения
Вы не можете голосовать в опросах
Вы не можете прикреплять файлы к сообщениям
Вы не можете скачивать файлы