Облава / La rafle (Розлин Бош / Rose Bosch) [2010, Франция, Германия, Венгрия, драма, военный, история, HDRip] MVO + Sub Eng + Original Eng

 
Автор Сообщение

TorrentFilm ®

Пол:

Стаж: 2 года

Сообщений: 7741



Награды: Нет

Торрент-статистика

Создавать темы 05-Ноя-2015 00:09

[Цитировать]

Облава / La rafle
Страна: Франция, Германия, Венгрия
Жанр: драма, военный, история
Год выпуска: 2010
Продолжительность: 02:05:10
Перевод: Профессиональный (многоголосый закадровый) R5
Cубтитры: английские
Оригинальная аудиодорожка: английский

Режиссер: Розлин Бош / Rose Bosch
В ролях: Жан Рено, Мелани Лоран, Гад Эльмале, Рафаэлла Агогуе, Хьюго Левердез, Оливер Цивье, Матье Ди Концерто, Ромайн Ди Концерто, Ребекка Мардер, Анн Броше, Изабелль Желина, Тьерри Фремон, Катрин Аллегре, Сильви Тестю, Сванн Арло, Армель, Надя Барантен, Филипп Ботье, Франсуа Бурелуп, Роланд Коуп, Патрик Куртуа, Холгер Дямген, Томас Дарчингер, Адель Экзаркопулос, Жан-Ив Фрейбургер, Йоханнес Оливер Хэмм, Джером Генри, Катрин Осмален, Тамаш Лендьель, Жан-Пьер Лори, Жамель Мехнан, Дэнис Меночет, Удо Шенк
Описание: История трех еврейских семей, основанная на реальных фактах. Главные герои оказываются в самом эпицентре событий, произошедших 16 и 17 июля 1942 года, когда французские полицейские задержали более 12 тысяч евреев и держали их на стадионе Вель-д`Ив. Условия содержания были ужасные, около сотни узников покончили жизнь самоубийством, а каждого, кто пытался бежать, расстреливали на месте. После шести дней в Вель-д`Иве евреев депортировали во французские лагеря Дранси, Бон-ла-Роланд и Питивьер, откуда потом этапировали в немецкие лагеря смерти.
Качество видео: HDRip
Формат видео: AVI
Видео: 720x304 (2.37:1), 23.976 fps, XviD build 73 ~1467 kbps avg, 0.28 bit/pixel
Аудио: 48 kHz, AC3 Dolby Digital, 2/0 (L,R) ch, ~192 kbps - многоголосый
Аудио: 48 kHz, AC3 Dolby Digital, 3/2 (L,C,R,l,r) + LFE ch, ~448 kbps - оригинал (отдельным файлом)

Сравнение

http://torrentfilm.net/forum/viewtopic.php?t=3137507
http://torrentfilm.net/forum/viewtopic.php?t=3089111
любительские двухголоски
рипов с проф переводом на трекере нет
в моей раздаче озвучка с лицензии - http://torrentfilm.net/forum/viewtopic.php?t=4400379

MediaInfo

Общее
Полное имя : H:\The.Round.Up.2010.hdrip_[1.46]_[teko].avi
Формат : AVI
Формат/Информация : Audio Video Interleave
Размер файла : 1,46 Гбайт
Продолжительность : 2 ч. 5 м.
Общий поток : 1669 Кбит/сек
Программа кодирования : VirtualDubMod 1.5.10.3 | www.virtualdub-fr.org || (build 2550/release)
Библиотека кодирования : VirtualDubMod build 2550/release
Видео
Идентификатор : 0
Формат : MPEG-4 Visual
Профиль формата : Advanced Simple@L5
Параметр BVOP формата : 1
Параметр QPel формата : Нет
Параметр GMC формата : Без точки перехода
Параметр матрицы формата : Выборочная
Идентификатор кодека : XVID
Идентификатор кодека/Подсказка : XviD
Продолжительность : 2 ч. 5 м.
Битрейт : 1468 Кбит/сек
Ширина : 720 пикселей
Высота : 304 пикселя
Соотношение сторон : 2,35:1
Частота кадров : 23,976 кадра/сек
Цветовое пространство : YUV
Субдискретизация насыщенности : 4:2:0
Битовая глубина : 8 бит
Тип развёртки : Прогрессивная
Метод сжатия : С потерями
Бит/(Пиксели*Кадры) : 0.280
Размер потока : 1,28 Гбайт (88%)
Библиотека кодирования : XviD 73
Аудио
Идентификатор : 1
Формат : AC-3
Формат/Информация : Audio Coding 3
Расширение режима : CM (complete main)
Параметр Endianness формата : Big
Идентификатор кодека : 2000
Продолжительность : 2 ч. 5 м.
Вид битрейта : Постоянный
Битрейт : 192 Кбит/сек
Каналы : 2 канала
Расположение каналов : Front: L R
Частота : 48,0 КГц
Битовая глубина : 16 бит
Метод сжатия : С потерями
Размер потока : 172 Мбайт (12%)
Выравнивание : Разделение по промежуткам
Продолжительность промежутка : 42 мс. (1,00 видеокадр)
Время предзагрузки промежутка : 500 мс.
Релиз группы:
--
[Профиль] [ЛС]

Создавать темы 12-Июн-2016 07:53 (спустя 7 месяцев 7 дней)

Топик был перенесен из форума Фильмы 2011 года в форум Фильмы 2010 года
Russian Mafia
 
Показать сообщения:    

Текущее время: Сегодня 10:52

Часовой пояс: GMT



Вы не можете начинать темы
Вы не можете отвечать на сообщения
Вы не можете редактировать свои сообщения
Вы не можете удалять свои сообщения
Вы не можете голосовать в опросах
Вы не можете прикреплять файлы к сообщениям
Вы не можете скачивать файлы