Облава на палача / La traque (Лоран Жауи / Laurent Jaoui) [2008, Германия, Франция, драма, DVDRip] MVO (5 Канал)

 
Автор Сообщение

painkiller ®

Стаж: 2 года 3 месяца

Сообщений: 582



Награды: Нет

Торрент-статистика

Создавать темы 14-Авг-2014 09:10

[Цитировать]

Облава на палача / La traque
Страна: Германия, Франция
Жанр: драма
Год выпуска: 2008
Продолжительность: 01:38:45
Перевод: Профессиональный (многоголосый закадровый) 5 Канал
Cубтитры: нет
Режиссер: Лоран Жауи /Laurent Jaoui
В ролях: Франка Потенте, Иван Атталь, Ханнс Цишлер, Хесус Рохас, Бенжамин Алазраки, Лоран Клюг, Софи Ева Вильхельми, Кристоф Бро, Марион Гам, Жан-Мари Винлин.
Описание: Начало 1970-х. Серж и Беата Кларсфельды посвятили себя увековечиванию памяти жертвам Холокоста.
Оставшись без какой-либо поддержки и даже минимальных денежных средств, они бросили вызов политическим деятелям, юридическим системам и общественному мнению нескольких стран.
Они отдали под суд несколько главных нацистских военных преступников. Но главная их задача — поймать нацистского преступника Клауса Барбье…
Сэмпл: http://multi-up.com/986196
Качество видео: DVDRip - Исходник
Формат видео: AVI
Видео: 656x352 (1.86:1), 25 fps, XviD, 922 kbps, 0.16 bit/pixel
Аудио: 48 kHz, MPEG Layer 3, 2 ch, 128.00 kbps, MVO (5 Канал)

MediaInfo

General
Complete name : E:\Раздачи\torrentfilm.net\Oblava_na_palacha_747_by_max1wq.avi
Format : AVI
Format/Info : Audio Video Interleave
File size : 747 MiB
Duration : 1h 38mn
Overall bit rate : 1 061 Kbps
Writing application : VirtualDubMod 1.5.10.2 (build 2540/release)
Writing library : VirtualDubMod build 2540/release
Video
ID : 0
Format : MPEG-4 Visual
Format profile : Advanced Simple@L5
Format settings, BVOP : 2
Format settings, QPel : No
Format settings, GMC : No warppoints
Format settings, Matrix : Custom
Codec ID : XVID
Codec ID/Hint : XviD
Duration : 1h 38mn
Bit rate : 923 Kbps
Width : 656 pixels
Height : 352 pixels
Display aspect ratio : 1.85:1
Frame rate : 25.000 fps
Color space : YUV
Chroma subsampling : 4:2:0
Bit depth : 8 bits
Scan type : Progressive
Compression mode : Lossy
Bits/(Pixel*Frame) : 0.160
Stream size : 650 MiB (87%)
Writing library : XviD 65
Audio
ID : 1
Format : MPEG Audio
Format version : Version 1
Format profile : Layer 3
Codec ID : 55
Codec ID/Hint : MP3
Duration : 1h 38mn
Bit rate mode : Constant
Bit rate : 128 Kbps
Channel(s) : 2 channels
Sampling rate : 48.0 KHz
Compression mode : Lossy
Stream size : 90.2 MiB (12%)
Alignment : Aligned on interleaves
Interleave, duration : 40 ms (1.00 video frame)
Interleave, preload duration : 504 ms

Скриншоты


[Профиль] [ЛС]

Создавать темы 06-Авг-2015 23:17 (спустя 11 месяцев 23 дня)

Топик был перенесен из форума Фильмы до 2014 года в форум Фильмы до 2012 года
sergej644
 

Создавать темы 12-Июн-2016 08:50 (спустя 1 год 9 месяцев)

Топик был перенесен из форума Фильмы 2011 года в форум Фильмы 2006-2008 года
Russian Mafia
 
Показать сообщения:    

Текущее время: Сегодня 06:05

Часовой пояс: GMT



Вы не можете начинать темы
Вы не можете отвечать на сообщения
Вы не можете редактировать свои сообщения
Вы не можете удалять свои сообщения
Вы не можете голосовать в опросах
Вы не можете прикреплять файлы к сообщениям
Вы не можете скачивать файлы