Обитель проклятых / Eliza Graves (2014) BDRip 1080p от MediaClub | D, A | GER Transfer

 
Автор Сообщение

sergej644 ®

Пол:

Стаж: 4 года 11 месяцев

Сообщений: 6040

Откуда: Soviet Union



Награды: Нет

Торрент-статистика

Создавать темы 16-Фев-2015 19:18

[Цитировать]

Информация о фильме
Название: Обитель проклятых
Оригинальное название: Stonehearst Asylum
Год выпуска: 2014
Жанр: Триллер, экранизация
Режиссер: Брэд Андерсон
В ролях: Кейт Бекинсейл, Джим Стёрджесс, Бен Кингсли, Дэвид Тьюлис, Майкл Кейн, Брендан Глисон, Джейсон Флеминг, Софи Кеннеди Кларк, Шинейд Кьюсак, Гийом Делони
Описание: По мотивам произведения Эдгара Аллана По «Система доктора Смоля и профессора Перро». Действие фильма разворачивается в конце XIX века. Молодой психиатр прибывает в психиатрическую больницу Стоунхёрст, в которой лечатся исключительно пациенты благородных кровей, для получения практического опыта. Представившись доктором Эдвардом Ньюгейтом из Оксфорда психиатр знакомится с немного странным персоналом больницы. И с первого дня пребывания доктор располагает к себе весьма привлекательную Элизу Грейвс, кажущуюся ему нормальной пациентку, которая откусила ухо и выколола глаз мужу. Спустя несколько дней Эдвард натыкается в подземелье на заключённых, утверждающих, что они все и есть настоящий обслуживающий персонал, в то время как находящиеся наверху люди - сумасшедшие все до единого, сумевшие свергнуть их и запереть в подвале в клетках. Доктор Бенджамин Солт, законный директор учреждения, просит Эдварда съездить в город за помощью либо вынудить самозванца-директора Сайлоса Лэмба проявить своё истинное лицо, чтобы вернуть всё как было. Но всё ли так просто, как кажется?

Выпущено: США / Icon Productions, Sobini Films
Продолжительность: 01:52:41
Перевод: Дублированный, авторский
Файл
Качество: BDRip 1080p
Видео: MPEG-4 AVC, 8000 Кбит/с, 1920x800, 23.976 кадр/с
Аудио #1: Русский (DTS, 6 ch, 1509 Кбит/с) / Дублированный (BD RUS)
Аудио #2: Русский (DTS, 6 ch, 1509 Кбит/с) / Авторский одноголосый (Гаврилов)
Аудио #3: Английский (DTS, 6 ch, 1509 Кбит/с)
Субтитры: Английские (full, SDH colored)
Семпл

Скриншоты

О релизе

За перевод А. Гаврилова большое спасибо пользователям форума hdtracker.org:
Gross1978; Xerman13; rydanes; dunhill200; Chistobaev; chef&chef; kondratzx; timur; saenwert; Brown15; dwser; kolibri2; KpucTo161; Диммон; Role; Dr. Destructo; Schmulke; Tagansky; _MyxAmoP_; Letyoha3; Pain_70; TOMAN; Luka69

MI

x264 [info]: frame I:1202 Avg QP:13.22 size:212214
x264 [info]: frame P:36566 Avg QP:15.44 size: 75429
x264 [info]: frame B:124340 Avg QP:17.64 size: 30098
x264 [info]: consecutive B-frames: 3.7% 3.8% 8.7% 7.7% 15.1% 52.1% 6.0% 0.8% 0.8% 0.7% 0.6%
************************************************************************************************************************
Общее
Уникальный идентификатор : 181693066697976574780319409764332383522 (0x88B0CFD1157E60629C71C1182C42AD22)
Полное имя : D:Mои раздачиObitel'.proklyatyh.2014.BDRip.1080p-MediaClub.mkv
Формат : Matroska
Версия формата : Version 4 / Version 2
Размер файла : 9,86 Гбайт
Продолжительность : 1 ч. 52 м.
Общий поток : 12,5 Мбит/сек
Название фильма : -=MediaClub-kaspr=-
Дата кодирования : UTC 2015-02-10 05:26:42
Программа кодирования : mkvmerge v6.9.1 ('Blue Panther') 64bit built on Apr 18 2014 18:23:38
Библиотека кодирования : libebml v1.3.0 + libmatroska v1.4.1
Видео
Идентификатор : 1
Формат : AVC
Формат/Информация : Advanced Video Codec
Профиль формата : High@L4.1
Параметр CABAC формата : Да
Параметр ReFrames формата : 5 кадров
Идентификатор кодека : V_MPEG4/ISO/AVC
Продолжительность : 1 ч. 52 м.
Битрейт : 8000 Кбит/сек
Ширина : 1920 пикселей
Высота : 800 пикселей
Соотношение сторон : 2,40:1
Режим частоты кадров : Постоянный
Частота кадров : 23,976 кадра/сек
Цветовое пространство : YUV
Субдискретизация насыщенности : 4:2:0
Битовая глубина : 8 бит
Тип развёртки : Прогрессивная
Бит/(Пиксели*Кадры) : 0.217
Размер потока : 6,10 Гбайт (62%)
Заголовок : -=MediaClub-kaspr=-
Библиотека кодирования : x264 core 142 r2431+42 c69a006 tMod [8-bit@4:2:0 X86_64]
Настройки программы : cabac=1 / ref=5 / deblock=1:-3:-3 / analyse=0x3:0x113 / me=umh / subme=11 / psy=1 / fade_compensate=0.00 / psy_rd=1.00:0.20 / mixed_ref=1 / me_range=32 / chroma_me=1 / trellis=2 / 8x8dct=1 / cqm=0 / deadzone=21,11 / fast_pskip=0 / chroma_qp_offset=-3 / threads=12 / lookahead_threads=3 / sliced_threads=0 / nr=0 / decimate=0 / interlaced=0 / bluray_compat=0 / constrained_intra=0 / fgo=0 / bframes=10 / b_pyramid=2 / b_adapt=2 / b_bias=0 / direct=3 / weightb=1 / open_gop=0 / weightp=2 / keyint=240 / keyint_min=23 / scenecut=40 / intra_refresh=0 / rc=2pass / mbtree=0 / bitrate=8000 / ratetol=1.0 / qcomp=0.60 / qpmin=0:0:0 / qpmax=69:69:69 / qpstep=4 / cplxblur=20.0 / qblur=0.5 / ip_ratio=1.40 / pb_ratio=1.30 / aq=4:0.80 / aq-sensitivity=10.00 / aq-factor=1.00:1.00:1.00 / aq2=0 / aq3=0
Default : Да
Forced : Нет
Аудио #1
Идентификатор : 2
Формат : DTS
Формат/Информация : Digital Theater Systems
Режим : 16
Параметр Endianness формата : Big
Идентификатор кодека : A_DTS
Продолжительность : 1 ч. 52 м.
Вид битрейта : Постоянный
Битрейт : 1509 Кбит/сек
Каналы : 6 каналов
Расположение каналов : Front: L C R, Side: L R, LFE
Частота : 48,0 КГц
Битовая глубина : 16 бит
Метод сжатия : С потерями
Размер потока : 1,19 Гбайт (12%)
Заголовок : Dub
Язык : Russian
Default : Да
Forced : Нет
Аудио #2
Идентификатор : 3
Формат : DTS
Формат/Информация : Digital Theater Systems
Режим : 16
Параметр Endianness формата : Big
Идентификатор кодека : A_DTS
Продолжительность : 1 ч. 52 м.
Вид битрейта : Постоянный
Битрейт : 1509 Кбит/сек
Каналы : 6 каналов
Расположение каналов : Front: L C R, Side: L R, LFE
Частота : 48,0 КГц
Битовая глубина : 24 бит
Метод сжатия : С потерями
Размер потока : 1,19 Гбайт (12%)
Заголовок : Гаврилов
Язык : Russian
Default : Нет
Forced : Нет
Аудио #3
Идентификатор : 4
Формат : DTS
Формат/Информация : Digital Theater Systems
Режим : 16
Параметр Endianness формата : Big
Идентификатор кодека : A_DTS
Продолжительность : 1 ч. 52 м.
Вид битрейта : Постоянный
Битрейт : 1509 Кбит/сек
Каналы : 6 каналов
Расположение каналов : Front: L C R, Side: L R, LFE
Частота : 48,0 КГц
Битовая глубина : 24 бит
Метод сжатия : С потерями
Размер потока : 1,19 Гбайт (12%)
Язык : English
Default : Нет
Forced : Нет
Текст #1
Идентификатор : 5
Формат : UTF-8
Идентификатор кодека : S_TEXT/UTF8
Идентификатор кодека/Информация : UTF-8 Plain Text
Заголовок : Full
Язык : English
Default : Нет
Forced : Нет
Текст #2
Идентификатор : 6
Формат : UTF-8
Идентификатор кодека : S_TEXT/UTF8
Идентификатор кодека/Информация : UTF-8 Plain Text
Заголовок : SDH
Язык : English
Default : Нет
Forced : Нет
Меню
00:00:00.000 : en:Chapter 01
00:09:14.886 : en:Chapter 02
00:17:51.361 : en:Chapter 03
00:27:37.906 : en:Chapter 04
00:37:54.730 : en:Chapter 05
00:45:40.696 : en:Chapter 06
00:54:59.921 : en:Chapter 07
01:03:44.028 : en:Chapter 08
01:12:48.405 : en:Chapter 09
01:22:12.427 : en:Chapter 10
01:30:24.252 : en:Chapter 11
01:48:23.121 : en:Chapter 12
[Профиль] [ЛС]
Кто просматривает тему:

Форум Тема Автор Размер
Антологии [Антология] Resident Evil / Обитель Зла [Repack] [RUS/ENG] (1997-2015) TorrentFilm 45.42 GB
Фильмы 2015 года Демоны Деборы Логан / The Taking (Адам Робител / Adam Robitel) [2015, США, ужасы, триллер, HDRip] Dub + Original Eng TorrentFilm 1.37 GB
Фильмы 2014 года Демоны Деборы Логан / The Taking (Адам Робител) [2014, Ужасы, триллер] HDRip | Чистый звук BOSS 1.37 GB
Фильмы 2011 года Обитель зла 3 / Resident Evil: Extinction (Рассел Малкэй / Russell Mulcahy) [2007, Германия, США, Франция, Австралия, Великобритания, ужасы, фантастика, боевик, триллер, DVB] [Fullscreen] Dub TorrentFilm 1.72 GB
Зарубежные Обитель Зла: Возмездие в 3Д / Resident Evil: Retribution 3D (Пол У. С. Андерсон / Paul W.S. Anderson) [2012, США, Германия, Канада, ужасы, фантастика, боевик, триллер, 3D Blu-ray Disc [EUR], 1080p]... TorrentFilm 40.89 GB
Зарубежные Обитель Зла: Возмездие в 3Д / Resident Evil: Retribution 3D (Пол У. С. Андерсон / Paul W.S. Anderson) [2012, Ужасы, Фантастика, Боевик, Триллер, BDrip-AVC] Half OverUnder / Вертикальная анаморф... TorrentFilm 10.42 GB
Зарубежные Обитель Зла: Возмездие в 3Д / Resident Evil: Retribution 3D (Пол У. С. Андерсон / Paul W.S. Anderson) [2012, ужасы, фантастика, боевик, триллер, BDRip-AVC] Half SideBySide / Горизонтальная анаморфная... TorrentFilm 9.64 GB
Трейлеры Обитель зла: Последняя глава / Resident Evil: The Final Chapter (2016) HDRip-1080p | Трейлер BOSS 101 MB
Показать сообщения:    

Текущее время: Сегодня 18:35

Часовой пояс: GMT



Вы не можете начинать темы
Вы не можете отвечать на сообщения
Вы не можете редактировать свои сообщения
Вы не можете удалять свои сообщения
Вы не можете голосовать в опросах
Вы не можете прикреплять файлы к сообщениям
Вы не можете скачивать файлы