Обитель проклятых / Eliza Graves / Stonehearst Asylum (Брэд Андерсон / Brad Anderson) [2014, США, триллер, BDRip] [US] Dub BD

 
Автор Сообщение

TorrentFilm ®

Пол:

Стаж: 2 года

Сообщений: 7741



Награды: Нет

Торрент-статистика

Создавать темы 07-Янв-2015 00:00

[Цитировать]

Обитель проклятых / Eliza Graves / Stonehearst Asylum
«No one is what they seem»
-Страна: США / Icon Productions, Sobini Films
Жанр: триллер
Год выпуска: 2014
Продолжительность: 01:52:40
Перевод: Профессиональный (дублированный) лицензия BD
Cубтитры: нет
Режиссёр: Брэд Андерсон / Brad Anderson
В ролях: Кейт Бекинсейл, Джим Стёрджесс, Бен Кингсли, Дэвид Тьюлис, Майкл Кейн, Брендан Глисон, Джейсон Флеминг, Софи Кеннеди Кларк, Шинед Кьюсак, Эдмунд Кингсли, Роберт Хэндс, Сиара Флинн, Кристофер Фулфорд, Эндрю Доллмейер, Гийом Делони.
Описание: Молодой медицинский работник Эдвард устраивается работать в психиатрическую лечебницу. Вскоре становится известно об исчезновении одного из лечащих врачей психушки. Эдвард обнаруживает, что его похитили пациенты больницы, а вскоре и вся психушка оказывается захвачена ими…-Рейтинг
imdb.com: 6.90 (12 924)
kinopoisk.ru: 7.217 (25 349)
MPAA: - детям до 13 лет просмотр не желателен-Сэмпл: http://multi-up.com/1024631-Качество видео: BDRip [BDRemux 1080p US]
Формат видео: AVI
Видео: XviD build 65, 720x304 (2.37:1), 23.976 fps, ~1466 kbps avg, 0.279 bit/pixel
Аудио: 48 kHz, AC3 Dolby Digital, 3/2 (L,C,R,l,r) + LFE ch, ~384 kbps avg (Dub)
-

MediaInfo

Общее
Полное имя : D:\Eliza.Graves.2014.US-Transfer.Dub.BDRip.1,46Gb.XviD.AC3.avi
Формат : AVI
Формат/Информация : Audio Video Interleave
Размер файла : 1,46 Гбайт
Продолжительность : 1 ч. 52 м.
Общий поток : 1859 Кбит/сек
Название фильма : Eliza Graves / Stonehearst Asylum 2014. [US-Transfer]
Режиссёр : Brad Anderson
Дата записи : 05.01.2015
Программа кодирования : VirtualDubModRus 1.5.10.2 (build 2542/release)
Библиотека кодирования : VirtualDubMod build 2542/release
Правообладатель : Rutracker.org
Примечание : BDRip by MooN_WalkeR
Видео
Идентификатор : 0
Формат : MPEG-4 Visual
Профиль формата : Advanced Simple@L5
Параметр BVOP формата : 1
Параметр QPel формата : Нет
Параметр GMC формата : Без точки перехода
Параметр матрицы формата : Выборочная
Идентификатор кодека : XVID
Идентификатор кодека/Подсказка : XviD
Продолжительность : 1 ч. 52 м.
Битрейт : 1466 Кбит/сек
Ширина : 720 пикселей
Высота : 304 пикселя
Соотношение сторон : 2,35:1
Частота кадров : 23,976 кадра/сек
Цветовое пространство : YUV
Субдискретизация насыщенности : 4:2:0
Битовая глубина : 8 бит
Тип развёртки : Прогрессивная
Метод сжатия : С потерями
Бит/(Пиксели*Кадры) : 0.279
Размер потока : 1,15 Гбайт (79%)
Библиотека кодирования : XviD 65
Аудио
Идентификатор : 1
Формат : AC-3
Формат/Информация : Audio Coding 3
Расширение режима : CM (complete main)
Параметр Endianness формата : Big
Идентификатор кодека : 2000
Продолжительность : 1 ч. 52 м.
Вид битрейта : Постоянный
Битрейт : 384 Кбит/сек
Каналы : 6 каналов
Расположение каналов : Front: L C R, Side: L R, LFE
Частота : 48,0 КГц
Битовая глубина : 16 бит
Метод сжатия : С потерями
Размер потока : 309 Мбайт (21%)
Выравнивание : Разделение по промежуткам
Продолжительность промежутка : 42 мс. (1,00 видеокадр)
Время предзагрузки промежутка : 500 мс.
Заголовок : Dub
[Профиль] [ЛС]
Кто просматривает тему:

Форум Тема Автор Размер
Антологии [Антология] Resident Evil / Обитель Зла [Repack] [RUS/ENG] (1997-2015) TorrentFilm 45.42 GB
Фильмы 2015 года Демоны Деборы Логан / The Taking (Адам Робител / Adam Robitel) [2015, США, ужасы, триллер, HDRip] Dub + Original Eng TorrentFilm 1.37 GB
Фильмы 2014 года Демоны Деборы Логан / The Taking (Адам Робител) [2014, Ужасы, триллер] HDRip | Чистый звук BOSS 1.37 GB
Фильмы 2011 года Обитель зла 3 / Resident Evil: Extinction (Рассел Малкэй / Russell Mulcahy) [2007, Германия, США, Франция, Австралия, Великобритания, ужасы, фантастика, боевик, триллер, DVB] [Fullscreen] Dub TorrentFilm 1.72 GB
Зарубежные Обитель Зла: Возмездие в 3Д / Resident Evil: Retribution 3D (Пол У. С. Андерсон / Paul W.S. Anderson) [2012, США, Германия, Канада, ужасы, фантастика, боевик, триллер, 3D Blu-ray Disc [EUR], 1080p]... TorrentFilm 40.89 GB
Зарубежные Обитель Зла: Возмездие в 3Д / Resident Evil: Retribution 3D (Пол У. С. Андерсон / Paul W.S. Anderson) [2012, Ужасы, Фантастика, Боевик, Триллер, BDrip-AVC] Half OverUnder / Вертикальная анаморф... TorrentFilm 10.42 GB
Зарубежные Обитель Зла: Возмездие в 3Д / Resident Evil: Retribution 3D (Пол У. С. Андерсон / Paul W.S. Anderson) [2012, ужасы, фантастика, боевик, триллер, BDRip-AVC] Half SideBySide / Горизонтальная анаморфная... TorrentFilm 9.64 GB
Трейлеры Обитель зла: Последняя глава / Resident Evil: The Final Chapter (2016) HDRip-1080p | Трейлер BOSS 101 MB
Показать сообщения:    

Текущее время: Сегодня 02:40

Часовой пояс: GMT



Вы не можете начинать темы
Вы не можете отвечать на сообщения
Вы не можете редактировать свои сообщения
Вы не можете удалять свои сообщения
Вы не можете голосовать в опросах
Вы не можете прикреплять файлы к сообщениям
Вы не можете скачивать файлы