Обитель зла 3 / Resident Evil: Extinction (Рассел Малкэй / Russell Mulcahy) [2007, Германия, США, Франция, Австралия, Великобритания, ужасы, фантастика, боевик, триллер, DVB] [Fullscreen] Dub

 
Автор Сообщение

TorrentFilm ®

Пол:

Стаж: 2 года

Сообщений: 7741



Награды: Нет

Торрент-статистика

Создавать темы 29-Сен-2015 00:08

[Цитировать]

Обитель зла 3 / Resident Evil: Extinction
«На этот раз без компромиссов»
Страна: Германия, США, Франция, Австралия, Великобритания
Жанр: ужасы, фантастика, боевик, триллер
Год выпуска: 2007
Продолжительность: 01:23:33
Перевод: Профессиональный (дублированный)
Cубтитры: нет
Оригинальная аудиодорожка: нет
Режиссер: Рассел Малкэй / Russell Mulcahy
В ролях: Милла Йовович, Одед Фер, Эли Лартер, Иэн Глен, Ашанти, Кристофер Иган, Спенсер Лок, Мэттью Мэрсден, Линден Эшби, Джейсон О’Мара
Описание: Элис, не раз уже спасавшая мир от смертельных вирусов и неминуемой гибели, вновь взялась за оружие. На этот раз ей предстоит сразиться с корпорацией «Амбрелла», работающей над реализацией зверского антигуманного проекта. Коварные политики и прагматичные ученые стремятся уничтожить людей и заменить их на более «совершенные» создания, заселив Землю неуязвимыми бессмертными клонами…-
MPAA: R - Лицам до 17 лет обязательно присутствие взрослого-Доп. информация: Fullscreen (4:3), в отличии от Widescreen (16:9), имеет большее наполнение кадра по высоте, но меньшее по ширине.
Есть цензура от телеканала: замылены некоторые сцены с кровью и вырезан момент с мёртвыми клонами Элис.-Релиз: -Качество видео: DVB - Sample
Формат видео: MPG
Видео: MPEG2 Video, 720x576 (4:3), 2703 Кбит/с, 0.261 бит/пиксель
Аудио: MPEG Layer 2, 48 КГц, 2 канал, 192 Кбит/с

MediaInfo

Общее
Полное имя : C:\Фильмы\Resident.Evil.Extinction.2007.DVB.Fullscreen.mpg
Формат : MPEG-PS
Размер файла : 1,72 Гбайт
Продолжительность : 1 ч. 23 м.
Режим общего битрейта : Переменный
Общий поток : 2954 Кбит/сек
Видео
Идентификатор : 224 (0xE0)
Формат : MPEG Video
Версия формата : Version 2
Профиль формата : Main@Main
Параметр BVOP формата : Да
Параметр матрицы формата : Выборочная
Параметр GOP формата : Variable
Продолжительность : 1 ч. 23 м.
Вид битрейта : Переменный
Битрейт : 2703 Кбит/сек
Максимальный битрейт : 15,0 Мбит/сек
Ширина : 720 пикселей
Высота : 576 пикселей
Соотношение сторон : 4:3
Частота кадров : 25,000 кадров/сек
Стандарт вещания : PAL
Цветовое пространство : YUV
Субдискретизация насыщенности : 4:2:0
Битовая глубина : 8 бит
Тип развёртки : Чересстрочная
Порядок развёртки : Верхнее поле первое
Метод сжатия : С потерями
Бит/(Пиксели*Кадры) : 0.261
TimeCode_FirstFrame : 00:00:00:00
TimeCode_Source : Group of pictures header
Размер потока : 1,58 Гбайт (92%)
Аудио
Идентификатор : 192 (0xC0)
Формат : MPEG Audio
Версия формата : Version 1
Профиль формата : Layer 2
Продолжительность : 1 ч. 23 м.
Вид битрейта : Постоянный
Битрейт : 192 Кбит/сек
Каналы : 2 канала
Частота : 48,0 КГц
Метод сжатия : С потерями
Задержка видео : 2 мс.
Размер потока : 115 Мбайт (6%)

Скриншоты


-Обитель зла / Resident Evil (2002) Fullscreen
[Профиль] [ЛС]
Кто просматривает тему:

Форум Тема Автор Размер
Антологии [Антология] Resident Evil / Обитель Зла [Repack] [RUS/ENG] (1997-2015) TorrentFilm 45.42 GB
Фильмы 2015 года Демоны Деборы Логан / The Taking (Адам Робител / Adam Robitel) [2015, США, ужасы, триллер, HDRip] Dub + Original Eng TorrentFilm 1.37 GB
Фильмы 2014 года Демоны Деборы Логан / The Taking (Адам Робител) [2014, Ужасы, триллер] HDRip | Чистый звук BOSS 1.37 GB
Зарубежные Обитель Зла: Возмездие в 3Д / Resident Evil: Retribution 3D (Пол У. С. Андерсон / Paul W.S. Anderson) [2012, США, Германия, Канада, ужасы, фантастика, боевик, триллер, 3D Blu-ray Disc [EUR], 1080p]... TorrentFilm 40.89 GB
Зарубежные Обитель Зла: Возмездие в 3Д / Resident Evil: Retribution 3D (Пол У. С. Андерсон / Paul W.S. Anderson) [2012, Ужасы, Фантастика, Боевик, Триллер, BDrip-AVC] Half OverUnder / Вертикальная анаморф... TorrentFilm 10.42 GB
Зарубежные Обитель Зла: Возмездие в 3Д / Resident Evil: Retribution 3D (Пол У. С. Андерсон / Paul W.S. Anderson) [2012, ужасы, фантастика, боевик, триллер, BDRip-AVC] Half SideBySide / Горизонтальная анаморфная... TorrentFilm 9.64 GB
Трейлеры Обитель зла: Последняя глава / Resident Evil: The Final Chapter (2016) HDRip-1080p | Трейлер BOSS 101 MB
Фильмы (HD Rips | 720p, 1080p) Обитель проклятых / Eliza Graves (2014) BDRip 1080p от MediaClub | D, A | GER Transfer sergej644 9.86 GB
Показать сообщения:    

Текущее время: Сегодня 14:00

Часовой пояс: GMT



Вы не можете начинать темы
Вы не можете отвечать на сообщения
Вы не можете редактировать свои сообщения
Вы не можете удалять свои сообщения
Вы не можете голосовать в опросах
Вы не можете прикреплять файлы к сообщениям
Вы не можете скачивать файлы