Обитель Зла: Возмездие в 3Д / Resident Evil: Retribution 3D (Пол У. С. Андерсон / Paul W.S. Anderson) [2012, ужасы, фантастика, боевик, триллер, BDRip-AVC] Half SideBySide / Горизонтальная анаморфная стереопара

 
Автор Сообщение

TorrentFilm ®

Пол:

Стаж: 2 года

Сообщений: 7741



Награды: Нет

Торрент-статистика

Создавать темы 19-Дек-2014 02:00

[Цитировать]

Обитель Зла: Возмездие
Resident Evil: Retribution
- Название: Обитель Зла: Возмездие
Оригинальное название: Resident Evil: Retribution
Год выпуска: 2012
Страна: США, Германия, Канада
Жанр: ужасы, фантастика, боевик, триллер
Продолжительность: 01:35:37
Перевод: Профессиональный (дублированный) EUR
Субтитры русские: есть
Оригинальная аудиодорожка: английский-Режиссер: Пол У. С. Андерсон / Paul W.S. Anderson
В ролях: Милла Йовович, Сиенна Гиллори, Мишель Родригес, Ариана Энджинир, Ли Бинбин, Борис Коджо, Йохан Урб, Робин Касянов, Кевин Дюран, Офилио Портильо.
Описание: Смертельный T-вирус, созданный в лабораториях корпорации Амбрелла, продолжает захватывать Землю, превращая мировое население в легионы пожирающих плоть зомби. Последняя надежда человечества Элис внедряется в самое сердце самой тайной исследовательской базы корпорации и узнает еще больше о собственном таинственном прошлом. Не имея путей к отступлению, Элис продолжает искать виновных в глобальной катастрофе. Вызов, который она принимала в Токио, Нью-Йорке, Вашингтоне и даже в Москве, приводит ее в итоге к взрывающему сознание откровению, которое заставит ее переосмыслить все, что она полагала правдой. С помощью новых союзников и старых друзей, Элис будет сражаться за выживание и убегать из враждебного мира. Отсчет времени начат.-Формат 3D: Half SideBySide / Горизонтальная анаморфная стереопара
Качество: BDRip
Контейнер: MKV
Видео: 1920x1080 (16:9), 23.976 fps, High Profile 4.1 ~12200 kbps
Аудио 1: Russian 48 kHz, 5.1 AC3 Dolby Digital Audio, 640.00 kbps | Dub
Аудио 2: Ukrainian 48 kHz, 5.1 AC3 Dolby Digital Audio, 640.00 kbps | Dub
Аудио 3: English 48 kHz, 5.1 AC3 Dolby Digital Audio, 640.00 kbps | Original
Субтитры: русские (полные), английские (полные) | srt.

Инфо

Format : Matroska
File size : 9.64 GiB
Duration : 1h 35mn
Overall bit rate : 14.4 Mbps
Movie name : Resident Evil: Retribution 3D (2012) by HDChina
Encoded date : UTC 2012-12-07 14:08:26
Writing application : mkvmerge v5.8.0 ('No Sleep / Pillow') built on Sep 2 2012 15:37:04
Writing library : libebml v1.2.3 + libmatroska v1.3.0
Video
ID : 1
Format : AVC
Format/Info : Advanced Video Codec
Format profile : High@L4.1
Format settings, CABAC : Yes
Format settings, ReFrames : 4 frames
Codec ID : V_MPEG4/ISO/AVC
Duration : 1h 35mn
Bit rate : 12.2 Mbps
Width : 1 920 pixels
Height : 1 080 pixels
Display aspect ratio : 16:9
Frame rate : 23.976 fps
Color space : YUV
Chroma subsampling : 4:2:0
Bit depth : 8 bits
Scan type : Progressive
Bits/(Pixel*Frame) : 0.246
Stream size : 8.16 GiB (85%)
Title : Resident Evil: Retribution 3D (2012)
Writing library : x264 core 129 r2230 1cffe9f
Encoding settings : cabac=1 / ref=4 / deblock=1:-3:-3 / analyse=0x3:0x113 / me=umh / subme=10 / psy=1 / psy_rd=1.00:0.15 / mixed_ref=1 / me_range=32 / chroma_me=1 / trellis=2 / 8x8dct=1 / cqm=0 / deadzone=21,11 / fast_pskip=1 / chroma_qp_offset=-3 / threads=18 / lookahead_threads=3 / sliced_threads=0 / nr=0 / decimate=1 / interlaced=0 / bluray_compat=0 / constrained_intra=0 / bframes=6 / b_pyramid=2 / b_adapt=1 / b_bias=0 / direct=3 / weightb=1 / open_gop=0 / weightp=2 / keyint=250 / keyint_min=23 / scenecut=40 / intra_refresh=0 / rc_lookahead=40 / rc=crf / mbtree=1 / crf=16.0 / qcomp=0.60 / qpmin=10 / qpmax=69 / qpstep=4 / vbv_maxrate=40000 / vbv_bufsize=30000 / crf_max=0.0 / nal_hrd=none / ip_ratio=1.40 / aq=1:1.00
Language : English
Audio #1
ID : 2
Format : AC-3
Format/Info : Audio Coding 3
Mode extension : CM (complete main)
Codec ID : A_AC3
Duration : 1h 35mn
Bit rate mode : Constant
Bit rate : 640 Kbps
Channel(s) : 6 channels
Channel positions : Front: L C R, Side: L R, LFE
Sampling rate : 48.0 KHz
Bit depth : 16 bits
Stream size : 438 MiB (4%)
Title : AC3 / 5.1 ch / 640 kbps / Русский дубляж BD
Language : Russian
Audio #2
ID : 3
Format : AC-3
Format/Info : Audio Coding 3
Mode extension : CM (complete main)
Codec ID : A_AC3
Duration : 1h 35mn
Bit rate mode : Constant
Bit rate : 640 Kbps
Channel(s) : 6 channels
Channel positions : Front: L C R, Side: L R, LFE
Sampling rate : 48.0 KHz
Bit depth : 16 bits
Stream size : 438 MiB (4%)
Title : AC3 / 5.1 ch / 640 kbps / Украинский дубляж BD
Language : Ukrainian
Audio #3
ID : 4
Format : AC-3
Format/Info : Audio Coding 3
Mode extension : CM (complete main)
Codec ID : A_AC3
Duration : 1h 35mn
Bit rate mode : Constant
Bit rate : 640 Kbps
Channel(s) : 6 channels
Channel positions : Front: L C R, Side: L R, LFE
Sampling rate : 48.0 KHz
Bit depth : 16 bits
Stream size : 438 MiB (4%)
Title : AC3 / 5.1 ch / 640 kbps / Английский original BD
Language : English
Text #1
ID : 5
Format : UTF-8
Codec ID : S_TEXT/UTF8
Codec ID/Info : UTF-8 Plain Text
Title : Full
Language : Russian
Text #2
ID : 6
Format : UTF-8
Codec ID : S_TEXT/UTF8
Codec ID/Info : UTF-8 Plain Text
Title : Full
Language : English
Menu
00:00:00.000 : en:00:00:00.000
00:07:43.046 : en:00:07:43.046
00:14:32.538 : en:00:14:32.538
00:21:38.839 : en:00:21:38.839
00:25:39.329 : en:00:25:39.329
00:29:31.186 : en:00:29:31.186
00:34:16.846 : en:00:34:16.846
00:39:14.769 : en:00:39:14.769
00:45:29.435 : en:00:45:29.435
00:50:27.441 : en:00:50:27.441
00:54:42.070 : en:00:54:42.070
01:00:14.861 : en:01:00:14.861
01:05:38.476 : en:01:05:38.476
01:11:22.904 : en:01:11:22.904
01:16:15.571 : en:01:16:15.571
01:21:29.384 : en:01:21:29.384
Дополнительно">

Скриншоты Дополнительно

  • Рип от HDChina
  • Сохранены оригинальные чаптеры как на Blu-ray
[Профиль] [ЛС]
Кто просматривает тему:

Форум Тема Автор Размер
Антологии [Антология] Resident Evil / Обитель Зла [Repack] [RUS/ENG] (1997-2015) TorrentFilm 45.42 GB
Фильмы 2015 года Демоны Деборы Логан / The Taking (Адам Робител / Adam Robitel) [2015, США, ужасы, триллер, HDRip] Dub + Original Eng TorrentFilm 1.37 GB
Фильмы 2014 года Демоны Деборы Логан / The Taking (Адам Робител) [2014, Ужасы, триллер] HDRip | Чистый звук BOSS 1.37 GB
Фильмы 2011 года Обитель зла 3 / Resident Evil: Extinction (Рассел Малкэй / Russell Mulcahy) [2007, Германия, США, Франция, Австралия, Великобритания, ужасы, фантастика, боевик, триллер, DVB] [Fullscreen] Dub TorrentFilm 1.72 GB
Зарубежные Обитель Зла: Возмездие в 3Д / Resident Evil: Retribution 3D (Пол У. С. Андерсон / Paul W.S. Anderson) [2012, США, Германия, Канада, ужасы, фантастика, боевик, триллер, 3D Blu-ray Disc [EUR], 1080p]... TorrentFilm 40.89 GB
Зарубежные Обитель Зла: Возмездие в 3Д / Resident Evil: Retribution 3D (Пол У. С. Андерсон / Paul W.S. Anderson) [2012, Ужасы, Фантастика, Боевик, Триллер, BDrip-AVC] Half OverUnder / Вертикальная анаморф... TorrentFilm 10.42 GB
Трейлеры Обитель зла: Последняя глава / Resident Evil: The Final Chapter (2016) HDRip-1080p | Трейлер BOSS 101 MB
Фильмы (HD Rips | 720p, 1080p) Обитель проклятых / Eliza Graves (2014) BDRip 1080p от MediaClub | D, A | GER Transfer sergej644 9.86 GB
Показать сообщения:    

Текущее время: Сегодня 06:03

Часовой пояс: GMT



Вы не можете начинать темы
Вы не можете отвечать на сообщения
Вы не можете редактировать свои сообщения
Вы не можете удалять свои сообщения
Вы не можете голосовать в опросах
Вы не можете прикреплять файлы к сообщениям
Вы не можете скачивать файлы