Обещать - не значит жениться / He\'s Just Not That Into You (Кен Куопис / Ken Kwapis.) [2009, США, комедия, мелодрама, HDRip] Dub

 
Автор Сообщение

painkiller ®

Стаж: 2 года 3 месяца

Сообщений: 582



Награды: Нет

Торрент-статистика

Создавать темы 26-Авг-2014 20:21

[Цитировать]

Обещать - не значит жениться / He's Just Not That Into You-«Позвони мне»- Страна: США | |
Жанр: комедия, мелодрама, драма
Год выпуска: 2009
Продолжительность: 02:09:21-Перевод: Профессиональный (дублированный)
Cубтитры: нет
Режиссер: Кен Куопис / Ken Kwapis.-В ролях: Дженнифер Коннелли, Бен Аффлек, Дрю Бэрримор, Скарлетт Йоханссон, Дженнифер Энистон, Брэдли Купер, Трентон Роджерс, Кевин Коннолли, Кристен Фэй Хантер, Сабрина Ревелл, Морган Лили, Джастин Лонг, Мишель Кармайкл.-Описание: Фильм, события которого разворачиваются в Балтиморе, повествует о непростых отношениях мужчины и женщины, которые не всегда верно истолковывают намерения друг друга. Привлекательный мужчина не спешит расстаться со своим статусом холостяка, чем вызывает бурную реакцию своей влюбленной подружки...-КиноПоиск | IMDB | Семпл-Качество видео: HDRip [ BDRip/1080p/]
Формат видео: AVI
Видео: 720x304 (2.37:1), 23.976 fps, XviD build 73 ~1408 kbps avg, 0.27 bit/pixel
Аудио: 48 kHz, AC3 Dolby Digital, 2/0 (L,R) ch, ~192 kbps

MediaInfo

General
Complete name : E:\Обещать - не значит жениться.(Logan1995).avi
Format : AVI
Format/Info : Audio Video Interleave
File size : 1,45 Гбайт
Duration : 2 ч. 9 м.
Overall bit rate : 1610 Кбит/сек
Writing application : VirtualDubMod 1.5.10.3 | www.virtualdub-fr.org || (build 2550/release)
Writing library : VirtualDubMod build 2550/release
Video
ID : 0
Format : MPEG-4 Visual
Format profile : Advanced Simple@L5
Format settings, BVOP : 1
Format settings, QPel : Нет
Format settings, GMC : Без точки перехода
Format settings, Matrix : Выборочная
Codec ID : XVID
Codec ID/Hint : XviD
Duration : 2 ч. 9 м.
Bit rate : 1408 Кбит/сек
Width : 720 пикс.
Height : 304 пикс.
Display aspect ratio : 2,35:1
Frame rate : 23,976 кадр/сек
Color space : YUV
Chroma subsampling : 4:2:0
Bit depth : 8 бит
Scan type : Прогрессивная
Compression mode : С потерями
Bits/(Pixel*Frame) : 0.268
Stream size : 1,27 Гбайт (87%)
Writing library : XviD 73
Audio
ID : 1
Format : AC-3
Format/Info : Audio Coding 3
Mode extension : CM (complete main)
Codec ID : 2000
Duration : 2 ч. 9 м.
Bit rate mode : Постоянный
Bit rate : 192 Кбит/сек
Channel(s) : 2 канала(ов)
Channel positions : Front: L R
Sampling rate : 48,0 КГц
Bit depth : 16 бит
Compression mode : С потерями
Stream size : 178 Мбайт (12%)
Alignment : Разделение по промежуткам
Interleave, duration : 42 мс. (1,00 видеокадр)
Interleave, preload duration : 500 ms

Скриншоты

--
[Профиль] [ЛС]

Создавать темы 06-Авг-2015 23:06 (спустя 11 месяцев 11 дней)

Топик был перенесен из форума Фильмы до 2014 года в форум Фильмы до 2012 года
sergej644
 

Создавать темы 12-Июн-2016 08:48 (спустя 1 год 9 месяцев)

Топик был перенесен из форума Фильмы 2011 года в форум Фильмы 2009 года
Russian Mafia
 
Показать сообщения:    

Текущее время: Сегодня 00:12

Часовой пояс: GMT



Вы не можете начинать темы
Вы не можете отвечать на сообщения
Вы не можете редактировать свои сообщения
Вы не можете удалять свои сообщения
Вы не можете голосовать в опросах
Вы не можете прикреплять файлы к сообщениям
Вы не можете скачивать файлы