Обещание / Obietnica (Анна Казеяк / Anna Kazejak) [2014, Польша, Дания, Драма, DVDRip] VO

 
Автор Сообщение

TorrentFilm ®

Пол:

Стаж: 2 года

Сообщений: 7741



Награды: Нет

Торрент-статистика

Создавать темы 02-Янв-2015 00:00

[Цитировать]

Обещание / Obietnica- Страна: Польша, Дания
Жанр: Драма
Год выпуска: 2014
Продолжительность: 01:32:59-Перевод: Одноголосый закадровый [PashaUP]
Cубтитры: нет-Режиссер: Анна Казеяк / Anna Kazejak-В ролях: Элиза Рицембел, Матеуш Вецлавек, Магдалена Поплавская, Анджей Хыра, Давид Огродник, Бартоломей Топа, Йовита Будник-Описание: Фильм о жизни современных старшеклассников. Четырнадцатилетняя Лиля заканчивает свой предпоследний год в начальной школе. Ее родители разведены, но поддерживают дружеские отношения. Отец Лили Конрад живет своей размеренной жизнью в Дании, а сама Лиля с матерью — Сильвией и ее новым другом Даниэлем - на окраине Щецина. Незадолго до окончания учебного года, в ее жизни случается то, что изменит ее навсегда. Лиля узнает, что ее бойфренд Янек на вечеринке целовал другую девушку. Она не может с этим смириться и ставит ему ультиматум. Теперь у Янека только двадцать четыре часа, чтобы доказать свою любовь, в противном случае он может забыть о Лиле...-Sample | IMDB | КиноПоиск-Тип релиза: DVDRip [исх. DVD9]
Формат видео: AVI-Видео: 720x304 (2.37:1), 25 fps, XviD build 50, 2050 kbps avg, 0.37 bit/pixel
Аудио: 48 kHz, AC3 Dolby Digital, 2/0 (L,R) ch, 192.00 kbps avg [Russian_VO]-Релиз группы: -

Сравнение скриншотов

http://torrentfilm.net/forum/viewtopic.php?t=4855095
http://screenshotcomparison.com/comparison/105982/picture:0
+ в звуковой дорожке убрана реклама стороннего ресурса

MediaInfo

General
Complete name : D:\Мои релизы\Obietnica_DVDRip_RG_All_Films.avi
Format : AVI
Format/Info : Audio Video Interleave
File size : 1.46 GiB
Duration : 1h 32mn
Overall bit rate : 2 253 Kbps
Writing application : VirtualDubMod 1.5.10.3 | www.virtualdub-fr.org || (build 2550/release)
Writing library : VirtualDubMod build 2550/release
Video
ID : 0
Format : MPEG-4 Visual
Format profile : Advanced Simple@L5
Format settings, BVOP : Yes
Format settings, QPel : No
Format settings, GMC : No warppoints
Format settings, Matrix : Custom
Codec ID : XVID
Codec ID/Hint : XviD
Duration : 1h 32mn
Bit rate : 2 051 Kbps
Width : 720 pixels
Height : 304 pixels
Display aspect ratio : 2.35:1
Frame rate : 25.000 fps
Color space : YUV
Chroma subsampling : 4:2:0
Bit depth : 8 bits
Scan type : Progressive
Compression mode : Lossy
Bits/(Pixel*Frame) : 0.375
Stream size : 1.33 GiB (91%)
Writing library : XviD 1.2.1 (UTC 2008-12-04)
Audio
ID : 1
Format : AC-3
Format/Info : Audio Coding 3
Mode extension : CM (complete main)
Codec ID : 2000
Duration : 1h 32mn
Bit rate mode : Constant
Bit rate : 192 Kbps
Channel(s) : 2 channels
Channel positions : Front: L R
Sampling rate : 48.0 KHz
Bit depth : 16 bits
Compression mode : Lossy
Stream size : 128 MiB (9%)
Alignment : Split accross interleaves
Interleave, duration : 40 ms (1.00 video frame)
Interleave, preload duration : 500 ms

Скриншоты

[Профиль] [ЛС]
Показать сообщения:    

Текущее время: Сегодня 00:18

Часовой пояс: GMT



Вы не можете начинать темы
Вы не можете отвечать на сообщения
Вы не можете редактировать свои сообщения
Вы не можете удалять свои сообщения
Вы не можете голосовать в опросах
Вы не можете прикреплять файлы к сообщениям
Вы не можете скачивать файлы