Обезьяны-воришки. Город полный обезьян / Monkey Thieves. A City Full Of Monkeys [2011 г., Документальный, SATRip] [Сезон 3, серии 13 из 13]

 
Автор Сообщение

reversefile ®

Пол:

Стаж: 4 года 5 месяцев

Сообщений: 842

Откуда: ReverseFile.org



Награды: Нет

Торрент-статистика

Создавать темы 11-Авг-2014 06:20

[Цитировать]

Обезьяны-воришки. Сезон 3: Город полный обезьян / Monkey Thieves. Season 3: A City Full Of Monkeys- Год выпуска: 2011
Страна: Нидерланды
Жанр: Документальный
Продолжительность: 13 х ~00:25:00
Перевод: Профессиональный (одноголосый)
Доп. инфо о переводе: SDI Media Group
Перевод - Мария Миронова и др.,
Текст читает - Дмитрий Шандро
Русские субтитры: нет
Оригинальная аудиодорожка: нет
Телеканал: Viasat Nature

-
Описание: Третий сезон этого сериала рассказывает историю «Банды Гальта» - стаи макак, живущих в красивом индуистском храме в пригороде Джайпура. Эти забавные мартышки живут в условиях настоящей роскоши, поскольку прихожане храма верят в милостивого бога обезьян, способного защитить их от дьявола, и эти животные для них священны. Макаки тщательно охраняют свой дом от любых посягательств и бодро передвигаются по улицам Джайпура в поисках пропитания и разных приключений. Этим летом в окрестностях города был установлен новый температурный рекорд, - всем нелегко справляться с аномальной жарой, между тем обезьяны продолжают творить беспорядки на улицах Джайпура.
-
Доп. информация:
Автор рипов: Малер
Релиз-группа: Занавес
Поскольку 10-ая серия исходном релизе "битая", она была мной записана заново с того же канала.

-
Сэмпл: https://yadi.sk/d/I9X7_gRPTQhmb
Качество: SATRip
Формат: AVI
Видео кодек: DivX
Аудио кодек: MP3
Видео: 720x400, 25.000 fps, ~1800 Кбит/с, b/p ~0.250
Аудио: 2 ch., 128 kbps, 48 KHz

Список серий


Серия 1. Взросление / Coming Of Age
После двухлетней борьбы за власть в банде Гальта, Замир наконец-то стал королем храма и пребывает в этом статусе уже полтора года, теперь ему предстоит также испытать на себе новую роль заботливого отца целого семейства. А на другом конце города Бипин, Яш и Тито замечательно обосновались по соседству с фруктовым рынком.
Серия 2. Наследие Замира / Zamir's Legacy
В благотворительном фонде помощи животным появился новый пациент – самка макаки с повреждениями спины в результате падения с электропроводов в Джайпуре.
Серия 3. Королевский переворот / Royal Retreat
В храме Гальта Замир ищет Рэни, а в Джайпуре Бипин, Яш и Тито продолжают прочесывать улицы города.
Серия 4. Потерянный рай / Paradise
Ишу и банду Гальта ожидает еще один день без предводителя Замира и альфа-самки Рэни. Без руководства в стае макак воцаряется хаос и паника.
Серия 5. Сладкая месть / Sweet Revenge
Мы возвращаемся в Джайпур, где в поисках лучшего пропитания Бипин, Яш и Тито вынуждены сменить свое место жительства.
Серия 6. Трое уже толпа / Three's A Crowd
Бипин, Яш и Тито снова совершают набег на фруктовый рынок.
Серия 7. Объединенные войска / Allied Forces
Близнецы Гангол и Раджин чинят беспредел в таксопарке. Одному из них даже удается вытащить бумажник у водителя и, похоже, что возвращать наличные он не собирается.
Серия 8. Последний герой / Last Man Standing
В Джайпуре проходит знаменитый красочный и шумный фестиваль Гангаур. Нарядные слоны и духовой оркестр возглавляют праздничное шествие по городу.
Серия 9. Жизнь на дне / Low Life
Покинутый друзьями Бипин в одиночестве слоняется по улицам Джайпура. Он останавливается у чайного магазинчика в надежде на скромное съестное пожертвование и продолжает свой путь далее в поисках подходящей кампании.
Серия 10. Хулиганы / Bad Boys
Летняя засуха привела к большому дефициту воды, и как только обезьянки-близнецы находят пойло для домашнего скота, они сразу устраивают в нем свой личный бассейн.
Серия 11. Разрушители ворот / Gate Crashers
На окраине городского парка Бипин наслаждается вниманием нескольких самок из новой незнакомой ему стаи макак.
Серия 12. Замедленное развитие / Arrested Development
По дороге к окраинам города обезьянки-близнецы находят бесхозную кладку куриных яиц. Перед тем как покинуть Джайпур они устраивают себе настоящий яичный пир.
Серия 13. Отцы и дети / Like Father Like Sons
Теперь, когда у стаи макак появился новый лидер, королеве приходится смириться с тем фактом, что она больше никогда не увидит свою мать и Замира. Или, может быть, еще не все потеряно?
Media Info">

Скриншоты Media Info


GeneralComplete name : L:\Monkey Thieves. A City Full Of Monkeys\S03E01. Coming Of Age.aviFormat : AVIFormat/Info : Audio Video InterleaveFile size : 351 MiBDuration : 25mn 3sOverall bit rate : 1 958 KbpsWriting application : VirtualDubMod 1.5.10.2 (build 2540/release)Writing library : VirtualDubMod build 2540/release
VideoID : 0Format : MPEG-4 VisualFormat profile : Advanced Simple@L5Format settings, BVOP : 2Format settings, QPel : NoFormat settings, GMC : No warppointsFormat settings, Matrix : Default (H.263)Muxing mode : Packed bitstreamCodec ID : DX50Codec ID/Hint : DivX 5Duration : 25mn 3sBit rate : 1 821 KbpsWidth : 720 pixelsHeight : 400 pixelsDisplay aspect ratio : 16:9Frame rate : 25.000 fpsColor space : YUVChroma subsampling : 4:2:0Bit depth : 8 bitsScan type : ProgressiveCompression mode : LossyBits/(Pixel*Frame) : 0.253Stream size : 326 MiB (93%)Writing library : XviD 64
AudioID : 1Format : MPEG AudioFormat version : Version 1Format profile : Layer 3Mode : Joint stereoMode extension : MS StereoCodec ID : 55Codec ID/Hint : MP3Duration : 25mn 3sBit rate mode : ConstantBit rate : 128 KbpsChannel count : 2 channelsSampling rate : 48.0 KHzCompression mode : LossyDelay relative to video : 48msStream size : 22.9 MiB (7%)Alignment : Aligned on interleavesInterleave, duration : 40 ms (1.00 video frame)Interleave, preload duration : 504 ms
[Профиль] [ЛС]
Кто просматривает тему:

Форум Тема Автор Размер
Зарубежные сериалы 12 обезьян / 12 Monkeys [S01] (2015) WEB-DL 720p | BaibaKo достали все 18.79 GB
Зарубежные сериалы 12 обезьян / 12 Monkeys [S02] (2016) WEB-DL 1080p | Baibako достали все 22.55 GB
Зарубежные сериалы 12 обезьян / 12 Monkeys [S02] (2016) WEB-DL 1080p от qqss44 | LostFilm Russian Mafia 22.5 GB
Зарубежные сериалы 12 обезьян / 12 Monkeys [S02] (2016) WEB-DL 720p | Baibako достали все 18.66 GB
Видео для КПК и Смартфонов 12 обезьян / 12 Monkeys [S02] (2016) WEB-DLRip | КПК | LostFilm достали все 2.48 GB
BBC BBC: Мир природы. Гарпия охотник на обезьян (Орлы Венесуэлы) / Natural World. Monkey Eating Eagle of Venezuela [сезон 30 эпизод 1] (Фергус Биллей / Fergus Beeley) [2010 г., Документальный, HDTVRip... skorpionN 1.43 GB
Nat Geo Wild Nat Geo Wild: Загадочные обезьяны Шангри-Ла / Mystery Monkeys of Shangri-La (Jacky Poon) [2015 г., Документальный, научно-познавательный, HDTVRip 720p] skorpionN 1.58 GB
National Geographic NG: Исследователь 2.0: Проклятие затерянного города: Легенда о "Городе обезьяньего бога" / Explorer. Legend of the monkey God [сезон 8 эпизод 02] (Graham Townsley) [2015 г., Документальный,... skorpionN 1.44 GB
Показать сообщения:    

Текущее время: Сегодня 14:04

Часовой пояс: GMT



Вы не можете начинать темы
Вы не можете отвечать на сообщения
Вы не можете редактировать свои сообщения
Вы не можете удалять свои сообщения
Вы не можете голосовать в опросах
Вы не можете прикреплять файлы к сообщениям
Вы не можете скачивать файлы