Обезьянка Фипс / Ahvipoeg Fips (Эльберт Туганов / Elbert Tuganov) [1968, мультфильм, VHSRip]

 
Автор Сообщение

TorrentFilm ®

Пол:

Стаж: 2 года

Сообщений: 7741



Награды: Нет

Торрент-статистика

Создавать темы 07-Янв-2015 00:00

[Цитировать]

Обезьянка Фипс / Ahvipoeg Fips
Страна: СССР (Эстонская республика)
Жанр: мультфильм
Продолжительность: 00:09:24
Год выпуска: 1968
Перевод: не требуется
Русские субтитры: нет
Режиссёр: Эльберт Туганов / Elbert Tuganov
Описание: Мультфильм для малышей по книжке Вильгельма Буша.
История озорной обезьянки, которую из джунглей Африки привезли в цивилизованный город, где ей пришлось сменить несколько хозяев. Но настоящая обезьянка никогда не забудет свои джунгли...
Качество: VHSRip
Формат: AVI
Видео: 2303 kbps, 720х544 (4:3), 25.000 fps, MPEG-4 Visual (XviD)
Аудио: 128 kbps, 48.0 kHz, 2 channels, MPEG Audio (MP3)
Субтитры: отсутствуют

Подробные технические данные

General
Complete name : Ahvipoeg Fips (1968).avi
Format : AVI
Format/Info : Audio Video Interleave
File size : 164 MiB
Duration : 9mn 24s
Overall bit rate : 2 441 Kbps
Writing application : VirtualDubMod 1.5.4.1 (build 2178/release)
Writing library : VirtualDubMod build 2178/release
Video
ID : 0
Format : MPEG-4 Visual
Format profile : Advanced Simple@L5
Format settings, BVOP : 1
Format settings, QPel : No
Format settings, GMC : No warppoints
Format settings, Matrix : Custom
Codec ID : XVID
Codec ID/Hint : XviD
Duration : 9mn 24s
Bit rate : 2 303 Kbps
Width : 720 pixels
Height : 544 pixels
Display aspect ratio : 4:3
Frame rate : 25.000 fps
Color space : YUV
Chroma subsampling : 4:2:0
Bit depth : 8 bits
Scan type : Progressive
Compression mode : Lossy
Bits/(Pixel*Frame) : 0.235
Stream size : 155 MiB (94%)
Writing library : XviD 1.0.0 (UTC 2004-05-09)
Audio
ID : 1
Format : MPEG Audio
Format version : Version 1
Format profile : Layer 3
Mode : Joint stereo
Mode extension : MS Stereo
Codec ID : 55
Codec ID/Hint : MP3
Duration : 9mn 24s
Bit rate mode : Constant
Bit rate : 128 Kbps
Channel(s) : 2 channels
Sampling rate : 48.0 KHz
Compression mode : Lossy
Stream size : 8.62 MiB (5%)
Alignment : Aligned on interleaves
Interleave, duration : 40 ms (1.00 video frame)
Interleave, preload duration : 504 ms

Скриншоты

[Профиль] [ЛС]
Кто просматривает тему:

Форум Тема Автор Размер
Зарубежные сериалы 12 обезьян / 12 Monkeys [S01] (2015) WEB-DL 720p | BaibaKo достали все 18.79 GB
Зарубежные сериалы 12 обезьян / 12 Monkeys [S02] (2016) WEB-DL 1080p | Baibako достали все 22.55 GB
Зарубежные сериалы 12 обезьян / 12 Monkeys [S02] (2016) WEB-DL 1080p от qqss44 | LostFilm Russian Mafia 22.5 GB
Зарубежные сериалы 12 обезьян / 12 Monkeys [S02] (2016) WEB-DL 720p | Baibako достали все 18.66 GB
Видео для КПК и Смартфонов 12 обезьян / 12 Monkeys [S02] (2016) WEB-DLRip | КПК | LostFilm достали все 2.48 GB
BBC BBC: Мир природы. Гарпия охотник на обезьян (Орлы Венесуэлы) / Natural World. Monkey Eating Eagle of Venezuela [сезон 30 эпизод 1] (Фергус Биллей / Fergus Beeley) [2010 г., Документальный, HDTVRip... skorpionN 1.43 GB
Nat Geo Wild Nat Geo Wild: Загадочные обезьяны Шангри-Ла / Mystery Monkeys of Shangri-La (Jacky Poon) [2015 г., Документальный, научно-познавательный, HDTVRip 720p] skorpionN 1.58 GB
National Geographic NG: Исследователь 2.0: Проклятие затерянного города: Легенда о "Городе обезьяньего бога" / Explorer. Legend of the monkey God [сезон 8 эпизод 02] (Graham Townsley) [2015 г., Документальный,... skorpionN 1.44 GB
Показать сообщения:    

Текущее время: Сегодня 16:33

Часовой пояс: GMT



Вы не можете начинать темы
Вы не можете отвечать на сообщения
Вы не можете редактировать свои сообщения
Вы не можете удалять свои сообщения
Вы не можете голосовать в опросах
Вы не можете прикреплять файлы к сообщениям
Вы не можете скачивать файлы