Обезьяна-убийца / Monkey Shines (1988) BDRip 720p | P2

 
Автор Сообщение

sergej644 ®

Пол:

Стаж: 4 года 11 месяцев

Сообщений: 6046

Откуда: Soviet Union



Награды: Нет

Торрент-статистика

Создавать темы 15-Ноя-2014 09:52

[Цитировать]

Информация о фильме
Год выпуска: 1988
Жанр: ужасы, фантастика, триллер, драма
Режиссер: Джордж А. Ромеро
В ролях: Джейсон Бег, Джон Пэнкоу, Стэнли Туччи, Кэйт МакНил, Джойс Ван Паттен, Кристина Форрест, Стивен Рут, Бу, Джанин Тернер, Уильям Ньюман, Туди Уиггинс, Том Куинн
Описание:
Аллан — молодой, подающий надежды студент. В результате несчастного случая он оказывается полностью парализованным. Чтобы помочь ему выйти из депрессии и снова обрести волю к жизни, его друг Джефри — гениальный ученый, работающий над повышением интеллекта у обезьян, решает подарить ему самку капуцина — плод своего эксперимента. Чтобы обучить обезьяну уходу за больным, Джефри обращается к дрессировщице Мелани. Аллан и Элла, так он называет нового друга, прекрасно находят общий язык, и через некоторое время Элла начинает даже предвосхищать многие просьбы Аллана. Все идет хорошо, симпатия, возникшая между Мелани и Алланом, начинает развиваться в более сильное чувство. Но однажды открываются темные, никому не ведомые способности обезьяны.

Выпущено: США
Перевод: профессиональный (двухголосый)
Субтитры: Нет
Продолжительность: 01:53:17
Файл
Качество: BDRip 720p
Контейнер: MKV
Видео: 1280x696, MPEG-4 AVC Video, 23.976 fps, ~5500 kbps
Аудио: 48 kHz, АС3, 2 ch, 192 kbps

M/I

General
Unique ID : 87189429211863315145542203788633724963 (0x419812C0DC41F126715B17580EE65823)
Complete name : F:Обезьяна-убийца.(1988) BDRip_720P.[-=DoMiNo=-].mkv
Format : Matroska
Format version : Version 4 / Version 2
File size : 4.50 GiB
Duration : 1h 53mn
Overall bit rate : 5 689 Kbps
Writing application : XviD4PSP 7.0 / 55.48.100
Writing library : XviD4PSP 7.0 / 55.48.100
COMMENT : MPEGTS > MKV / H264 > X264 VBR-2P 5500kbps Custom / AC3 > AC3 CBR 192kbps
Video
ID : 1
Format : AVC
Format/Info : Advanced Video Codec
Format profile : High@L4.1
Format settings, CABAC : Yes
Format settings, ReFrames : 7 frames
Codec ID : V_MPEG4/ISO/AVC
Duration : 1h 53mn
Bit rate : 5 500 Kbps
Width : 1 280 pixels
Height : 696 pixels
Display aspect ratio : 1.85:1
Frame rate mode : Constant
Frame rate : 23.976 fps
Color space : YUV
Chroma subsampling : 4:2:0
Bit depth : 8 bits
Scan type : Progressive
Bits/(Pixel*Frame) : 0.257
Stream size : 4.26 GiB (95%)
Writing library : x264 core 142 r2479M dd79a61
Encoding settings : cabac=1 / ref=7 / deblock=1:-3:-3 / analyse=0x3:0x133 / me=umh / subme=11 / psy=1 / psy_rd=1,00:0,70 / mixed_ref=1 / me_range=32 / chroma_me=1 / trellis=2 / 8x8dct=1 / cqm=0 / deadzone=21,11 / fast_pskip=0 / chroma_qp_offset=-4 / threads=14 / lookahead_threads=2 / sliced_threads=0 / nr=0 / decimate=0 / interlaced=0 / bluray_compat=0 / constrained_intra=0 / bframes=8 / b_pyramid=2 / b_adapt=2 / b_bias=0 / direct=3 / weightb=1 / open_gop=0 / weightp=2 / keyint=230 / keyint_min=23 / scenecut=40 / intra_refresh=0 / rc=2pass / mbtree=0 / bitrate=5500 / ratetol=1,0 / qcomp=0,60 / qpmin=3 / qpmax=69 / qpstep=4 / cplxblur=20,0 / qblur=0,5 / ip_ratio=1,40 / pb_ratio=1,30 / aq=2:1,00
Default : Yes
Forced : No
Audio
ID : 2
Format : AC-3
Format/Info : Audio Coding 3
Mode extension : CM (complete main)
Format settings, Endianness : Big
Codec ID : A_AC3
Duration : 1h 53mn
Bit rate mode : Constant
Bit rate : 192 Kbps
Channel(s) : 2 channels
Channel positions : Front: L R
Sampling rate : 48.0 KHz
Bit depth : 16 bits
Compression mode : Lossy
Delay relative to video : 27ms
Stream size : 156 MiB (3%)
Language : Russian
Default : Yes
Forced : No
--

Скриншоты

--
[Профиль] [ЛС]

Создавать темы 06-Авг-2015 23:01 (спустя 8 месяцев 21 день)

Топик был перенесен из форума Фильмы до 2014 года в форум Фильмы до 2012 года
sergej644
 
Кто просматривает тему:

Форум Тема Автор Размер
Зарубежные сериалы 12 обезьян / 12 Monkeys [S01] (2015) WEB-DL 720p | BaibaKo достали все 18.79 GB
Зарубежные сериалы 12 обезьян / 12 Monkeys [S02] (2016) WEB-DL 1080p | Baibako достали все 22.55 GB
Зарубежные сериалы 12 обезьян / 12 Monkeys [S02] (2016) WEB-DL 1080p от qqss44 | LostFilm Russian Mafia 22.5 GB
Зарубежные сериалы 12 обезьян / 12 Monkeys [S02] (2016) WEB-DL 720p | Baibako достали все 18.66 GB
Видео для КПК и Смартфонов 12 обезьян / 12 Monkeys [S02] (2016) WEB-DLRip | КПК | LostFilm достали все 2.48 GB
BBC BBC: Мир природы. Гарпия охотник на обезьян (Орлы Венесуэлы) / Natural World. Monkey Eating Eagle of Venezuela [сезон 30 эпизод 1] (Фергус Биллей / Fergus Beeley) [2010 г., Документальный, HDTVRip... skorpionN 1.43 GB
Nat Geo Wild Nat Geo Wild: Загадочные обезьяны Шангри-Ла / Mystery Monkeys of Shangri-La (Jacky Poon) [2015 г., Документальный, научно-познавательный, HDTVRip 720p] skorpionN 1.58 GB
National Geographic NG: Исследователь 2.0: Проклятие затерянного города: Легенда о "Городе обезьяньего бога" / Explorer. Legend of the monkey God [сезон 8 эпизод 02] (Graham Townsley) [2015 г., Документальный,... skorpionN 1.44 GB
Показать сообщения:    

Текущее время: Сегодня 06:26

Часовой пояс: GMT



Вы не можете начинать темы
Вы не можете отвечать на сообщения
Вы не можете редактировать свои сообщения
Вы не можете удалять свои сообщения
Вы не можете голосовать в опросах
Вы не можете прикреплять файлы к сообщениям
Вы не можете скачивать файлы