Обезьяна с острова Саругасима (Михаил Ботов) [1970, Рисованный мультфильм, DVB]

 
Автор Сообщение

TorrentFilm ®

Пол:

Стаж: 2 года

Сообщений: 7741



Награды: Нет

Торрент-статистика

Создавать темы 03-Янв-2016 00:04

[Цитировать]

Обезьяна с острова Саругасима
Жанр: мультфильм
Год выпуска: 1970
Продолжительность: 00:09:22
Режиссёр: Михаил Ботов
Описание: Мультфильм по мотивам японской сказки. Дракон, повелитель моря, тяжело заболел. Придворный врач - медуза прописала ему печень обезьяны. Пришлось искать того, кто из моря вылезет на сушу и привезет обезьяну. Выбрали черепаху....
Доп. информация:

Трансляция спутникового канала: "Карусель"
Качество видео: DVB
Формат видео: MPEG-PS
Видео: MPEG2 Video, 720x576, 25 fps, 3700 kbps
Аудио: MPEG Audio, 2 сh, 48 kHz, 192 kbps

MediaInfo

General
Complete name : G:\Обезьяна с острова Саругасима. (1970)_DVB by SLuMeP.mpg
Format : MPEG-PS
File size : 270 MiB
Duration : 9mn 22s
Overall bit rate mode : Variable
Overall bit rate : 4 017 Kbps
Writing library : (c) 1998-2010 Womble Multimedia, Inc. / MPEG Video Wizard DVD 5.0.0.114 (01/2010) / Apr 20 2010
Video
ID : 224 (0xE0)
Format : MPEG Video
Format version : Version 2
Format profile : Main@Main
Format settings, BVOP : Yes
Format settings, Matrix : Custom
Format settings, GOP : M=3, N=12
Duration : 9mn 22s
Bit rate mode : Variable
Bit rate : 3 745 Kbps
Maximum bit rate : 5 000 Kbps
Width : 720 pixels
Height : 576 pixels
Display aspect ratio : 4:3
Frame rate : 25.000 fps
Standard : PAL
Color space : YUV
Chroma subsampling : 4:2:0
Bit depth : 8 bits
Scan type : Interlaced
Scan order : Top Field First
Compression mode : Lossy
Bits/(Pixel*Frame) : 0.361
Time code of first frame : 00:00:00:00
Time code source : Group of pictures header
Stream size : 251 MiB (93%)
Writing library : (c) 1998-2010 Womble Multimedia, Inc. / MPEG Video Wizard DVD 5.0.0.114 (01/2010) / Apr 20 2010
Audio
ID : 192 (0xC0)
Format : MPEG Audio
Format version : Version 1
Format profile : Layer 2
Duration : 9mn 22s
Bit rate mode : Constant
Bit rate : 192 Kbps
Channel(s) : 2 channels
Sampling rate : 48.0 KHz
Compression mode : Lossy
Delay relative to video : -40ms
Stream size : 12.9 MiB (5%)

Скриншоты

[Профиль] [ЛС]
Кто просматривает тему:

Форум Тема Автор Размер
Зарубежные сериалы 12 обезьян / 12 Monkeys [S01] (2015) WEB-DL 720p | BaibaKo достали все 18.79 GB
Зарубежные сериалы 12 обезьян / 12 Monkeys [S02] (2016) WEB-DL 1080p | Baibako достали все 22.55 GB
Зарубежные сериалы 12 обезьян / 12 Monkeys [S02] (2016) WEB-DL 1080p от qqss44 | LostFilm Russian Mafia 22.5 GB
Зарубежные сериалы 12 обезьян / 12 Monkeys [S02] (2016) WEB-DL 720p | Baibako достали все 18.66 GB
Видео для КПК и Смартфонов 12 обезьян / 12 Monkeys [S02] (2016) WEB-DLRip | КПК | LostFilm достали все 2.48 GB
BBC BBC: Мир природы. Гарпия охотник на обезьян (Орлы Венесуэлы) / Natural World. Monkey Eating Eagle of Venezuela [сезон 30 эпизод 1] (Фергус Биллей / Fergus Beeley) [2010 г., Документальный, HDTVRip... skorpionN 1.43 GB
Nat Geo Wild Nat Geo Wild: Загадочные обезьяны Шангри-Ла / Mystery Monkeys of Shangri-La (Jacky Poon) [2015 г., Документальный, научно-познавательный, HDTVRip 720p] skorpionN 1.58 GB
National Geographic NG: Исследователь 2.0: Проклятие затерянного города: Легенда о "Городе обезьяньего бога" / Explorer. Legend of the monkey God [сезон 8 эпизод 02] (Graham Townsley) [2015 г., Документальный,... skorpionN 1.44 GB
Показать сообщения:    

Текущее время: Сегодня 18:16

Часовой пояс: GMT



Вы не можете начинать темы
Вы не можете отвечать на сообщения
Вы не можете редактировать свои сообщения
Вы не можете удалять свои сообщения
Вы не можете голосовать в опросах
Вы не можете прикреплять файлы к сообщениям
Вы не можете скачивать файлы