Обезьяна зимой / Un Singe en Hiver (1962) BDRip 720p от HDCLUB

 
Автор Сообщение

Белочка ®

Пол:

Стаж: 5 лет 3 месяца

Сообщений: 2086



Награды: 1 (Подробнее)

Girls (Количество: 1)
Торрент-статистика

Создавать темы 07-Ноя-2014 21:46

[Цитировать]

Обезьяна зимой / Un singe en hiver Год выпуска: 1962
Страна: Франция
Производство: C.I.P.R.A., Cité Films
Слоган: «(We Can't Tell What Happened The Morning After...) But Oh! What Happened The Night Before!»
Жанр: драма, комедия
Продолжительность: 01:43:28
Перевод:
Профессиональный (многоголосый, закадровый) ТРК «Петербург–Пятый канал»
Профессиональный (двухголосый) «Селена Интернешнл» (по заказу ОРТ)
Профессиональный (многоголосый, закадровый) ТК «TВ Центр»
Авторский (одноголосый) Роман Янкелевич
Субтитры: Английские, французские-Режиссер: Анри Вернёй / Henri Verneuil
Сценарий: Мишель Одиар / Michel Audiard, Антуан Блондин / Antoine Blondin, Франсуа Бойер / François Boyer
Продюсер: Жак Бар / Jacques Bar
Оператор: Луи Паж / Louis Page
Композитор: Мишель Мань / Michel Magne-В ролях: Жан Габен (Albert Quentin), Жан-Поль Бельмондо (Gabriel Fouquet), Сюзанн Флон (Suzanne Quentin), Габриель Дорзиа (Victoria), Хелла Петри (Georgina), Марсель Арнольд (L'infirmière de la pension / Nurse), Шарль Буйо (Le chauffeur de taxi), Анн-Мари Коффине (Simone), Андре Далибер (Maurice, le brigadier), Элен Дьедонне (Joséphine), Женевьев Фонтанель (Marie-Jo), Габриэль Гобен (Un habitué du café)-Мировая премьера: 11 мая 1962-Описание: В день высадки союзных войск маленькая деревушка в Нормандии становится объектом интенсивных бомбардировок. В подвале своего небольшого отеля Альберт Кантен торжественно клянется своей жене, чтоникогда больше не будет пить, если для них все закончится благополучно. Прошло пятнадцать лет, и он все еще держит слово.
Но однажды в его отеле появляется молодой постоялец Габриэль, который своим пристрастием к алкоголю напоминает хозяину его молодые годы. Ночная встреча становится новым поворотом в их судьбах, каждый из них грезит желанием изменить свою жизнь, порвать с окружающей размеренной жизнью и отправиться в путешествие.-Рейтинг:
-Формат: Matroska
Видео: 1280x546 at 24.000 fps, x264@L4.1, ~ 9500 kbps avg
Aудио#1: Russian: 48 kHz, AC3, 2/0 (L,R) ch, ~192.00 kbps avg |Многоголосый закадровый, ТРК «Петербург–Пятый канал»|
Aудио#2: Russian: 48 kHz, AC3, 2/0 (L,R) ch, ~192.00 kbps avg |Двухголосый закадровый, «Селена Интернешнл» (по заказу ОРТ)|
Aудио#3: Russian: 48 kHz, AC3, 2/0 (L,R) ch, ~192.00 kbps avg |Многоголосый закадровый, ТК «TВ Центр»|
Aудио#4: Russian: 48 kHz, AC3, 2/0 (L,R) ch, ~192.00 kbps avg |Одноголосый закадровый, Р. Янкилевич|
Аудио#5: French: 48 kHz/16-bit, FLAC 2.0, ~622.00 kbps avg-

MI

General
Unique ID : 211762982570826971500045664476308579286 (0x9F501121F850C70AAA61A4DB4B6A23D6)
Complete name : Un.singe.en.hiver.1962.720p.BluRay.4xRus.Fre.HDCLUB-SbR.mkv
Format : Matroska
Format version : Version 4 / Version 2
File size : 7.89 GiB
Duration : 1h 43mn
Overall bit rate mode : Variable
Overall bit rate : 10.9 Mbps
Encoded date : UTC 2014-11-06 08:26:46
Writing application : mkvmerge v7.3.0 ('Nouages') 64bit built on Oct 22 2014 18:53:34
Writing library : libebml v1.3.0 + libmatroska v1.4.1
Attachements : cover.jpg
Video
ID : 1
Format : AVC
Format/Info : Advanced Video Codec
Format profile : High@L4.1
Format settings, CABAC : Yes
Format settings, ReFrames : 12 frames
Codec ID : V_MPEG4/ISO/AVC
Duration : 1h 43mn
Nominal bit rate : 9 500 Kbps
Width : 1 280 pixels
Height : 546 pixels
Display aspect ratio : 2.35:1
Frame rate mode : Constant
Frame rate : 24.000 fps
Original frame rate : 23.976 fps
Color space : YUV
Chroma subsampling : 4:2:0
Bit depth : 8 bits
Scan type : Progressive
Bits/(Pixel*Frame) : 0.566
Writing library : x264 core 142 r2479kMod dd79a61
Encoding settings : cabac=1 / ref=12 / deblock=1:-3:-3 / analyse=0x3:0x133 / me=umh / subme=11 / psy=1 / fade_compensate=0.00 / psy_rd=1.00:0.05 / mixed_ref=1 / me_range=24 / chroma_me=1 / trellis=2 / 8x8dct=1 / cqm=0 / deadzone=21,11 / fast_pskip=0 / chroma_qp_offset=-3 / threads=6 / lookahead_threads=1 / sliced_threads=0 / nr=0 / decimate=1 / interlaced=0 / bluray_compat=0 / constrained_intra=0 / fgo=0 / bframes=12 / b_pyramid=2 / b_adapt=2 / b_bias=0 / direct=3 / weightb=1 / open_gop=0 / weightp=2 / keyint=250 / keyint_min=23 / scenecut=40 / intra_refresh=0 / rc_lookahead=40 / rc=2pass / mbtree=0 / bitrate=9500 / ratetol=1.0 / qcomp=0.70 / qpmin=0 / qpmax=69 / qpstep=4 / cplxblur=20.0 / qblur=0.5 / vbv_maxrate=62500 / vbv_bufsize=78125 / nal_hrd=none / filler=0 / ip_ratio=1.10 / pb_ratio=1.10 / aq=1:0.80
Language : English
Default : Yes
Forced : No
Matrix coefficients : BT.709
Audio #1
ID : 2
Format : AC-3
Format/Info : Audio Coding 3
Mode extension : CM (complete main)
Format settings, Endianness : Big
Codec ID : A_AC3
Duration : 1h 43mn
Bit rate mode : Constant
Bit rate : 192 Kbps
Channel(s) : 2 channels
Channel positions : Front: L R
Sampling rate : 48.0 KHz
Bit depth : 16 bits
Compression mode : Lossy
Stream size : 142 MiB (2%)
Title : Многоголосый закадровый, ТРК «Петербург–Пятый канал»
Language : Russian
Default : Yes
Forced : No
Audio #2
ID : 3
Format : AC-3
Format/Info : Audio Coding 3
Mode extension : CM (complete main)
Format settings, Endianness : Big
Codec ID : A_AC3
Duration : 1h 43mn
Bit rate mode : Constant
Bit rate : 192 Kbps
Channel(s) : 2 channels
Channel positions : Front: L R
Sampling rate : 48.0 KHz
Bit depth : 16 bits
Compression mode : Lossy
Stream size : 142 MiB (2%)
Title : Двухголосый закадровый, «Селена Интернешнл» (по заказу ОРТ)
Language : Russian
Default : No
Forced : No
Audio #3
ID : 4
Format : AC-3
Format/Info : Audio Coding 3
Mode extension : CM (complete main)
Format settings, Endianness : Big
Codec ID : A_AC3
Duration : 1h 43mn
Bit rate mode : Constant
Bit rate : 192 Kbps
Channel(s) : 2 channels
Channel positions : Front: L R
Sampling rate : 48.0 KHz
Bit depth : 16 bits
Compression mode : Lossy
Stream size : 142 MiB (2%)
Title : Многоголосый закадровый, ТК «TВ Центр»
Language : Russian
Default : No
Forced : No
Audio #4
ID : 5
Format : AC-3
Format/Info : Audio Coding 3
Mode extension : CM (complete main)
Format settings, Endianness : Big
Codec ID : A_AC3
Duration : 1h 43mn
Bit rate mode : Constant
Bit rate : 192 Kbps
Channel(s) : 2 channels
Channel positions : Front: L R
Sampling rate : 48.0 KHz
Bit depth : 16 bits
Compression mode : Lossy
Stream size : 142 MiB (2%)
Title : Одноголосый закадровый, Р. Янкилевич
Language : Russian
Default : No
Forced : No
Audio #5
ID : 6
Format : FLAC
Format/Info : Free Lossless Audio Codec
Codec ID : A_FLAC
Duration : 1h 43mn
Bit rate mode : Variable
Channel(s) : 2 channels
Sampling rate : 48.0 KHz
Bit depth : 24 bits
Writing library : libFLAC 1.2.1 (UTC 2007-09-17)
Language : French
Default : No
Forced : No
Text #1
ID : 7
Format : UTF-8
Codec ID : S_TEXT/UTF8
Codec ID/Info : UTF-8 Plain Text
Title : for
Language : French
Default : No
Forced : No
Text #2
ID : 8
Format : UTF-8
Codec ID : S_TEXT/UTF8
Codec ID/Info : UTF-8 Plain Text
Language : French
Default : No
Forced : No
Text #3
ID : 9
Format : PGS
Muxing mode : zlib
Codec ID : S_HDMV/PGS
Codec ID/Info : The same subtitle format used on BDs/HD-DVDs
Title : sup
Language : French
Default : No
Forced : No
Text #4
ID : 10
Format : UTF-8
Codec ID : S_TEXT/UTF8
Codec ID/Info : UTF-8 Plain Text
Language : English
Default : No
Forced : No
Menu
00:00:00.000 : en:00:00:00.000
00:08:07.333 : en:00:08:07.333
00:18:21.125 : en:00:18:21.125
00:25:48.583 : en:00:25:48.583
00:35:34.208 : en:00:35:34.208
00:43:36.250 : en:00:43:36.250
00:52:15.458 : en:00:52:15.458
01:00:08.166 : en:01:00:08.166
01:08:28.666 : en:01:08:28.666
01:15:04.875 : en:01:15:04.875
01:25:10.457 : en:01:25:10.457
01:36:50.957 : en:01:36:50.957

Скриншоты

- by deliaЦитатаКто-то писал:Сохранены оригинальные чаптеры как на Blu-ray.
За исходный диск спасибо foxlight.
За русские дороги спасибо Master_Bum.
[Профиль] [ЛС]
Кто просматривает тему:

Форум Тема Автор Размер
Зарубежные сериалы 12 обезьян / 12 Monkeys [S01] (2015) WEB-DL 720p | BaibaKo достали все 18.79 GB
Зарубежные сериалы 12 обезьян / 12 Monkeys [S02] (2016) WEB-DL 1080p | Baibako достали все 22.55 GB
Зарубежные сериалы 12 обезьян / 12 Monkeys [S02] (2016) WEB-DL 1080p от qqss44 | LostFilm Russian Mafia 22.5 GB
Зарубежные сериалы 12 обезьян / 12 Monkeys [S02] (2016) WEB-DL 720p | Baibako достали все 18.66 GB
Видео для КПК и Смартфонов 12 обезьян / 12 Monkeys [S02] (2016) WEB-DLRip | КПК | LostFilm достали все 2.48 GB
BBC BBC: Мир природы. Гарпия охотник на обезьян (Орлы Венесуэлы) / Natural World. Monkey Eating Eagle of Venezuela [сезон 30 эпизод 1] (Фергус Биллей / Fergus Beeley) [2010 г., Документальный, HDTVRip... skorpionN 1.43 GB
Nat Geo Wild Nat Geo Wild: Загадочные обезьяны Шангри-Ла / Mystery Monkeys of Shangri-La (Jacky Poon) [2015 г., Документальный, научно-познавательный, HDTVRip 720p] skorpionN 1.58 GB
National Geographic NG: Исследователь 2.0: Проклятие затерянного города: Легенда о "Городе обезьяньего бога" / Explorer. Legend of the monkey God [сезон 8 эпизод 02] (Graham Townsley) [2015 г., Документальный,... skorpionN 1.44 GB
Показать сообщения:    

Текущее время: Сегодня 23:47

Часовой пояс: GMT



Вы не можете начинать темы
Вы не можете отвечать на сообщения
Вы не можете редактировать свои сообщения
Вы не можете удалять свои сообщения
Вы не можете голосовать в опросах
Вы не можете прикреплять файлы к сообщениям
Вы не можете скачивать файлы