Обвиняемый Мендес Франс / Accuse Mendes France (Лоран Эйнеманн / Laurent Heynemann) [2010, Франция, исторический, биографический, экранизация, DVB] Original (Fre) + Sub (rus)

 
Автор Сообщение

TorrentFilm ®

Пол:

Стаж: 1 год 11 месяцев

Сообщений: 7741



Награды: Нет

Торрент-статистика

Создавать темы 19-Дек-2014 02:00

[Цитировать]

Обвиняемый Мендес Франс
Accusé Mendès France- Страна: Франция
Жанр: исторический, биографический, экранизация
Год выпуска: 2010
Продолжительность: 01:30:15
Перевод: Субтитры (перевод Éclair Group)
Cубтитры: русские
Оригинальная аудиодорожка: французский
Режиссер: Лоран Эйнеманн / Laurent HeynemannВ ролях: Брюно Соло / Bruno Solo (Pierre Mendès France), Жак Списсер / Jacques Spiesser (Le président Perré), Дидье Бенюро / Didier Bénureau (Le juge Leprêtre), Жан-Клод Дофен / Jean-Claude Dauphin (Maître Fonlupt), Жюльен Люка / Julien Lucas (Maître Rochat)
Описание: Композитор Брюно Куле / Bruno Coulais. Оператор Робер Алазраки / Robert Alazraki. По книге Жана-Дени Бредена / Jean-Denis Bredin "Un tribunal au garde-à-vous. Le procès de Pierre Mendès France, 9 mai 1941" (2002).
В народе бытует мнение, что политик обязан нравиться всем. Пьер Мендес Франс (1907-1982), известный французский политический деятель ХХ века, этого, по-видимому, не знал. Во всяком случае, отказывался следовать такой тенденции на протяжении всей своей карьеры. И при этом – как независимый политический деятель – он пользовался большим уважением во Франции и за ее пределами.
С самого начала военных действий Франс добровольно вступил во французские военно-воздушные силы, попал в немецкий плен, из которого бежал в оккупированную нацистскими войсками Францию. Там бывший заместитель министра финансов снова был арестован представителями коллаборационистского режима Виши, осужден и приговорен к шестилетнему тюремному заключению. Однако в 1942 году Франсу вновь удалось бежать из тюрьмы и добраться до Англии, где он в качестве военного летчика присоединился к "Сражающейся Франции" Шарля де Голля. (Василий Максимов)
Доп. информация: TV5MONDE DVB-S
Участник Luchon Film Festival 2011.

Качество видео: DVB
Формат видео: MKV
Видео: MPEG Video 2, 704x576@1024x576 (16:9), 25 fps, ~3708 kbps avg, 0.366 bit/pixel
Аудио: Французский (MPEG Audio 2, 2 ch, 48 kHz, ~192.00 kbps avg)
Формат субтитров: hardsub (неотключаемые)

MediaInfo

ОбщееУникальный идентификатор : 246791844054605309283953258026018080893 (0xB9AA61580883B36AB0643F8EF3C5087D)Полное имя : E:\My Torrents 2\[apreder]Accuse_Mendes_France(2010)DVB.mkvФормат : MatroskaВерсия формата : Version 2Размер файла : 2,51 ГбайтПродолжительность : 1 ч. 30 м.Режим общего битрейта : ПеременныйОбщий поток : 3979 Кбит/секДата кодирования : UTC 2014-11-09 12:48:32Программа кодирования : mkvmerge v7.3.0 ('Nouages') 64bit built on Oct 22 2014 18:53:34Библиотека кодирования : libebml v1.3.0 + libmatroska v1.4.1
ВидеоИдентификатор : 1Формат : MPEG VideoВерсия формата : Version 2Профиль формата : Main@MainПараметр BVOP формата : НетПараметр матрицы формата : ВыборочнаяFormat_Settings_PictureStructure : FrameИдентификатор кодека : V_MPEG2Идентификатор кодека/Информация : MPEG 1 or 2 VideoПродолжительность : 1 ч. 30 м.Вид битрейта : ПеременныйБитрейт : 3708 Кбит/секМаксимальный битрейт : 7414 Кбит/секШирина : 704 пикселяВысота : 576 пикселейСоотношение сторон : 16:9Режим частоты кадров : ПостоянныйЧастота кадров : 25,000 кадров/секСтандарт вещания : PALЦветовое пространство : YUVСубдискретизация насыщенности : 4:2:0Битовая глубина : 8 битТип развёртки : ЧересстрочнаяПорядок развёртки : Верхнее поле первоеМетод сжатия : С потерямиБит/(Пиксели*Кадры) : 0.366Временной код первого кадра : 00:00:00:00Оригинал временного кода : Group of pictures headerРазмер потока : 2,34 Гбайт (93%)Default : ДаForced : Нет
АудиоИдентификатор : 2Формат : MPEG AudioВерсия формата : Version 1Профиль формата : Layer 2Идентификатор кодека : A_MPEG/L2Идентификатор кодека/Подсказка : MP2Продолжительность : 1 ч. 30 м.Вид битрейта : ПостоянныйБитрейт : 192 Кбит/секКаналы : 2 каналаЧастота : 48,0 КГцМетод сжатия : С потерямиРазмер потока : 124 Мбайт (5%)Язык : FrenchDefault : ДаForced : Нет

Скриншот c названием фильма

Скриншоты


Резервные скриншоты


-[1'903]
[Профиль] [ЛС]

Создавать темы 06-Авг-2015 22:54 (спустя 7 месяцев 18 дней)

Топик был перенесен из форума Фильмы до 2014 года в форум Фильмы до 2012 года
sergej644
 

Создавать темы 12-Июн-2016 07:54 (спустя 1 год 5 месяцев)

Топик был перенесен из форума Фильмы 2011 года в форум Фильмы 2010 года
Russian Mafia
 
Показать сообщения:    

Текущее время: Сегодня 20:03

Часовой пояс: GMT



Вы не можете начинать темы
Вы не можете отвечать на сообщения
Вы не можете редактировать свои сообщения
Вы не можете удалять свои сообщения
Вы не можете голосовать в опросах
Вы не можете прикреплять файлы к сообщениям
Вы не можете скачивать файлы