Нянька / Der Nanny (Маттиас Швайгхёфер / Matthias Schweighöfer , Торстен Кюнстлер / Torsten Künstler) [2015, Германия, комедия, HDRip] VO

 
Автор Сообщение

TorrentFilm ®

Пол:

Стаж: 2 года

Сообщений: 7741



Награды: Нет

Торрент-статистика

Создавать темы 29-Ноя-2015 00:07

[Цитировать]

Нянька / Der NannyСтрана: Германия
Жанр: комедия
Год выпуска: 2015
Продолжительность: 01:50:19
Перевод: Одноголосый закадровый Виктор Береговых, по переводу Михаила Васильева-Режиссер: Маттиас Швайгхёфер / Matthias Schweighöfer , Торстен Кюнстлер / Torsten Künstler-В ролях: Маттиас Швайгхёфер, Милан Пешель, Паула Хартманн, Арвед Фризе, Йоко Винтершайдт, Саша Александер, Илька Бессин, Кирстен Блок
-Клеменс Клина - крупный бизнесмен. Он планирует снести старые дома в центре Берлина и застроить район элитным жильем. Ему противостоит группа инициативных граждан во главе с Рольфом.Потеряв собственный дом, Рольф отправляется в дом Клина с мыслью отомстить, проще говоря набить морду.Клина впускает Рольфа в свой дом и приняв его за няньку из агентства, предлагает работу.И тут в голову Рольфу приходит мысль отомстить более изощренно, так сказать изнутри.Он соглашается стать нянькой, еще не зная о том, что он уже 8 няня за последний год.У Клеменса двое очень проблемных детей, которые давно уже превращают жизнь своего отца в страшный сон...-Сэмпл: http://sendfile.su/1170323
Качество видео: HDRip
Формат видео: AVI
Видео: XviD (1.2.2) 800kbps 688x288 23.976fps
Аудио: MP3 128kbps 2ch 16bit 48000khz

MediaInfo

MediaInfoLib - v0.7.62
General
Complete name : F:\Мои раздачи 2\Нянька (Der Nanny). 2015г. HDRip. - kontarik81.avi
Format : AVI
Format/Info : Audio Video Interleave
File size : 739 MiB
Duration : 1h 50mn
Overall bit rate : 937 Kbps
Writing application : VirtualDubMod 1.5.10.3 | www.virtualdub-fr.org || (build 2550/release)
Writing library : VirtualDubMod build 2550/release
Video
ID : 0
Format : MPEG-4 Visual
Format profile : Advanced Simple@L5
Format settings, BVOP : 1
Format settings, QPel : No
Format settings, GMC : No warppoints
Format settings, Matrix : Default (H.263)
Codec ID : XVID
Codec ID/Hint : XviD
Duration : 1h 50mn
Bit rate : 800 Kbps
Width : 688 pixels
Height : 288 pixels
Display aspect ratio : 2.40:1
Frame rate : 23.976 fps
Color space : YUV
Chroma subsampling : 4:2:0
Bit depth : 8 bits
Scan type : Progressive
Compression mode : Lossy
Bits/(Pixel*Frame) : 0.168
Stream size : 631 MiB (85%)
Writing library : XviD 1.2.1 (UTC 2008-12-04)
Audio
ID : 1
Format : MPEG Audio
Format version : Version 1
Format profile : Layer 3
Mode : Joint stereo
Mode extension : MS Stereo
Codec ID : 55
Codec ID/Hint : MP3
Duration : 1h 50mn
Bit rate mode : Constant
Bit rate : 128 Kbps
Channel(s) : 2 channels
Sampling rate : 48.0 KHz
Compression mode : Lossy
Stream size : 101 MiB (14%)
Alignment : Aligned on interleaves
Interleave, duration : 42 ms (1.00 video frame)
Interleave, preload duration : 504 ms
Writing library : LAME3.99r
Encoding settings : -m j -V 4 -q 2 -lowpass 17 -b 128

Скриншот c названием фильма

Скриншоты

[Профиль] [ЛС]
Показать сообщения:    

Текущее время: Сегодня 07:15

Часовой пояс: GMT



Вы не можете начинать темы
Вы не можете отвечать на сообщения
Вы не можете редактировать свои сообщения
Вы не можете удалять свои сообщения
Вы не можете голосовать в опросах
Вы не можете прикреплять файлы к сообщениям
Вы не можете скачивать файлы