Нянька по вызову / The Rebound (Барт Фрейндлих / Bart Freundlich) [2009, США, мелодрама, комедия, BDRip-AVC] Dub (R5) + Original (Eng) + Subs (Eng)

 
Автор Сообщение

TorrentFilm ®

Пол:

Стаж: 2 года

Сообщений: 7741



Награды: Нет

Торрент-статистика

Создавать темы 04-Янв-2015 00:01

[Цитировать]

Нянька по вызову / The Rebound«Всё, что у неё уже было, у него впереди»- Страна: США
Жанр: мелодрама, комедия
Год выпуска: 2009
Продолжительность: 01:34:44-Перевод: Профессиональный (дублированный) - R5
Оригинальная аудиодорожка: English
Cубтитры: English (full)
Навигация по главам: присутствует - 12 глав-Режиссер: Барт Фрейндлих / Bart Freundlich
В ролях: Кэтрин Зета-Джонс, Джастин Барта, Саадет Аксой, Стив Антонуччи, Марк Алан Остин, Пол Басиле, Роберт Бизик, Эндрю Брэдли, Дэниэл Барресс, Меган Бирн-Описание: У 25-летнего юноши начинается роман с матерью-одиночкой, живущей по соседству. Основной преградой в их отношениях становится то, что главная героиня существенно старше своего избранника.-
Download sample-Качество видео: BDRip-AVC | исх. BDRemux 1080p - thx: -DaRkY-
Формат: MKV-Видео: 1 136x484 (2.35:1), 23.976 fps, H.264 ~1775 kbps avg, 0.131 bit/pixel
Аудио №1: 48.0 kHz, AC3 Dolby Digital, 3/2 (L,C,R,l,r) + LFE ch, ~384 kbps | Профессиональный (дублированный) - R5
Аудио №2: 48.0 kHz, AC3 Dolby Digital, 3/2 (L,C,R,l,r) + LFE ch, ~448 kbps | English-

MediaInfo

General
Unique ID : 244673445235622474611487209429360531767 (0xB8126437DFB5DE889403DB8D262D5937)
Complete name : D:\Фильмы\Рипы\The Rebound.2009.BDRip-AVC.eFK tRuAVC.mkv
Format : Matroska
Format version : Version 4 / Version 2
File size : 1.73 GiB
Duration : 1h 34mn
Overall bit rate : 2 607 Kbps
Movie name : Нянька по вызову / The Rebound (2009) - Release for rutracker
Encoded date : UTC 2014-12-31 15:16:41
Writing application : mkvmerge v7.2.0 ('On Every Street') 64bit built on Sep 13 2014 15:52:10
Writing library : libebml v1.3.0 + libmatroska v1.4.1
DURATION : 01:34:44.544000000
NUMBER_OF_FRAMES : 177642
NUMBER_OF_BYTES : 318334464
_STATISTICS_WRITING_APP : mkvmerge v7.2.0 ('On Every Street') 64bit built on Sep 13 2014 15:52:10
_STATISTICS_WRITING_DATE_UTC : 2014-12-31 15:16:41
_STATISTICS_TAGS : BPS DURATION NUMBER_OF_FRAMES NUMBER_OF_BYTES
Attachment : Yes
Video
ID : 1
Format : AVC
Format/Info : Advanced Video Codec
Format profile : High@L4.1
Format settings, CABAC : Yes
Format settings, ReFrames : 13 frames
Codec ID : V_MPEG4/ISO/AVC
Duration : 1h 34mn
Bit rate : 1 723 Kbps
Width : 1 136 pixels
Height : 484 pixels
Display aspect ratio : 2.35:1
Frame rate mode : Constant
Frame rate : 23.976 fps
Color space : YUV
Chroma subsampling : 4:2:0
Bit depth : 8 bits
Scan type : Progressive
Bits/(Pixel*Frame) : 0.131
Stream size : 1.14 GiB (66%)
Title : eFK tRuAVC
Writing library : x264 core 142 r2491kMod 24e4fed
Encoding settings : cabac=1 / ref=13 / deblock=1:-2:-1 / analyse=0x3:0x133 / me=umh / subme=11 / psy=1 / fade_compensate=0.00 / psy_rd=0.95:0.00 / mixed_ref=1 / me_range=64 / chroma_me=1 / trellis=2 / 8x8dct=1 / cqm=0 / deadzone=21,11 / fast_pskip=0 / chroma_qp_offset=-2 / threads=12 / lookahead_threads=3 / sliced_threads=0 / nr=0 / decimate=1 / interlaced=0 / bluray_compat=0 / constrained_intra=0 / fgo=0 / bframes=16 / b_pyramid=2 / b_adapt=2 / b_bias=0 / direct=3 / weightb=1 / open_gop=0 / weightp=2 / keyint=250 / keyint_min=23 / scenecut=40 / intra_refresh=0 / rc_lookahead=60 / rc=crf / mbtree=0 / crf=20.0000 / qcomp=0.70 / qpmin=0 / qpmax=69 / qpstep=4 / vbv_maxrate=50000 / vbv_bufsize=62500 / crf_max=0.0 / nal_hrd=none / filler=0 / ip_ratio=1.25 / pb_ratio=1.15 / aq=3:0.95
Language : English
Default : Yes
Forced : No
Color primaries : BT.709
Transfer characteristics : BT.709
Matrix coefficients : BT.709
DURATION : 01:34:44.471000000
NUMBER_OF_FRAMES : 136291
NUMBER_OF_BYTES : 1260945370
_STATISTICS_WRITING_APP : mkvmerge v7.2.0 ('On Every Street') 64bit built on Sep 13 2014 15:52:10
_STATISTICS_WRITING_DATE_UTC : 2014-12-31 15:16:41
_STATISTICS_TAGS : BPS DURATION NUMBER_OF_FRAMES NUMBER_OF_BYTES
Audio #1
ID : 2
Format : AC-3
Format/Info : Audio Coding 3
Mode extension : CM (complete main)
Format settings, Endianness : Big
Codec ID : A_AC3
Duration : 1h 34mn
Bit rate mode : Constant
Bit rate : 384 Kbps
Channel count : 6 channels
Channel positions : Front: L C R, Side: L R, LFE
Sampling rate : 48.0 KHz
Bit depth : 16 bits
Compression mode : Lossy
Stream size : 260 MiB (15%)
Title : Dub (R5)
Language : Russian
Default : Yes
Forced : No
Audio #2
ID : 3
Format : AC-3
Format/Info : Audio Coding 3
Mode extension : CM (complete main)
Format settings, Endianness : Big
Codec ID : A_AC3
Duration : 1h 34mn
Bit rate mode : Constant
Bit rate : 448 Kbps
Channel count : 6 channels
Channel positions : Front: L C R, Side: L R, LFE
Sampling rate : 48.0 KHz
Bit depth : 16 bits
Compression mode : Lossy
Stream size : 304 MiB (17%)
Language : English
Default : No
Forced : No
Text
ID : 4
Format : UTF-8
Codec ID : S_TEXT/UTF8
Codec ID/Info : UTF-8 Plain Text
Title : full
Language : English
Default : No
Forced : No
Menu
00:00:00.000 : en:00:00:00.000
00:11:07.750 : en:00:11:07.750
00:18:30.818 : en:00:18:30.818
00:28:19.323 : en:00:28:19.323
00:35:28.960 : en:00:35:28.960
00:42:36.137 : en:00:42:36.137
00:51:51.900 : en:00:51:51.900
01:02:09.809 : en:01:02:09.809
01:13:14.223 : en:01:13:14.223
01:17:04.829 : en:01:17:04.829
01:24:29.898 : en:01:24:29.898
01:30:46.274 : en:01:30:46.274

x264 log

x264 [info]: frame I:1154 Avg QP:17.74 size: 51393
x264 [info]: frame P:29016 Avg QP:19.33 size: 17454
x264 [info]: frame B:106121 Avg QP:20.82 size: 6551
x264 [info]: consecutive B-frames: 1.6% 1.6% 9.3% 19.7% 20.6% 40.0% 4.6% 1.1% 0.7% 0.4% 0.2% 0.1% 0.1% 0.0% 0.0% 0.0% 0.1%
x264 [info]: mb I I16..4: 7.0% 73.1% 19.8%
x264 [info]: mb P I16..4: 0.7% 7.6% 1.7% P16..4: 35.1% 36.0% 9.8% 1.0% 0.1% skip: 7.9%
x264 [info]: mb B I16..4: 0.1% 0.8% 0.2% B16..8: 36.2% 20.3% 2.6% direct: 3.7% skip:36.2% L0:43.1% L1:46.9% BI:10.0%
x264 [info]: 8x8 transform intra:74.1% inter:66.6%
x264 [info]: direct mvs spatial:100.0% temporal:0.0%
x264 [info]: coded y,uvDC,uvAC intra: 80.6% 85.0% 60.9% inter: 16.4% 15.3% 2.3%
x264 [info]: i16 v,h,dc,p: 35% 13% 4% 48%
x264 [info]: i8 v,h,dc,ddl,ddr,vr,hd,vl,hu: 13% 6% 6% 9% 13% 15% 12% 13% 12%
x264 [info]: i4 v,h,dc,ddl,ddr,vr,hd,vl,hu: 28% 7% 6% 7% 11% 12% 10% 9% 9%
x264 [info]: i8c dc,h,v,p: 32% 27% 23% 18%
x264 [info]: Weighted P-Frames: Y:2.6% UV:1.7%
x264 [info]: ref P L0: 46.3% 9.7% 18.2% 5.8% 5.0% 3.4% 3.1% 1.7% 1.7% 1.4% 1.4% 1.1% 1.1% 0.2% 0.0%
x264 [info]: ref B L0: 74.8% 11.0% 4.8% 2.5% 1.7% 1.4% 1.1% 0.8% 0.7% 0.7% 0.4% 0.2%
x264 [info]: ref B L1: 93.2% 6.8%
x264 [info]: kb/s:1774.58
x264 [total]: encoded 136291 frames, 7.75 fps, 1774.58 kb/s, duration 4:53:03.65
ComparisonSource

Encode
http://torrentfilm.net/forum/viewtopic.php?t=3110437 http://screenshotcomparison.com/comparison/106692
[Профиль] [ЛС]

Создавать темы 06-Авг-2015 22:50 (спустя 7 месяцев 2 дня)

Топик был перенесен из форума Фильмы до 2014 года в форум Фильмы до 2012 года
sergej644
 

Создавать темы 12-Июн-2016 08:48 (спустя 1 год 5 месяцев)

Топик был перенесен из форума Фильмы 2011 года в форум Фильмы 2009 года
Russian Mafia
 
Показать сообщения:    

Текущее время: Сегодня 14:20

Часовой пояс: GMT



Вы не можете начинать темы
Вы не можете отвечать на сообщения
Вы не можете редактировать свои сообщения
Вы не можете удалять свои сообщения
Вы не можете голосовать в опросах
Вы не можете прикреплять файлы к сообщениям
Вы не можете скачивать файлы