Нюша feat. Ivan KIT - Только (Remix) (2014) [H.264/1080p-LQ] WEBRip

 
Автор Сообщение

sergej644 ®

Пол:

Стаж: 4 года 11 месяцев

Сообщений: 6038

Откуда: Soviet Union



Награды: Нет

Торрент-статистика

Создавать темы 02-Авг-2014 20:33

[Цитировать]

-Нюша feat. Ivan KIT - Только (Remix) (2014) [H.264/1080p-LQ] WEBRip- Исполнитель: Нюша, Ivan KIT
Год выпуска: 2014
Жанр: Pop
Продолжительность: 00:03:53
Описание: Видеоклип Нюша feat. Ivan KIT - Только (Remix)
Качество видео: WEBRip [1080p]
Видеокодек: MPEG-4 AVC/H.264
Битрейт видео: ~3502 Кбит/с
Размер кадра: 1920x1080 (16:9), 25,000 кадров/с
Аудиокодек: AAC, 2 ch, stereo
Битрейт аудио: 126 Кбит/с

MediaInfo:

Общее
Полное имя : Нюша feat. Ivan KIT - Только (Remix).mp4
Формат : MPEG-4
Профиль формата : Base Media / Version 2
Идентификатор кодека : mp42
Размер файла : 101 Мбайт
Продолжительность : 3 м. 53 с.
Режим общего битрейта : Переменный
Общий поток : 3632 Кбит/сек
Видео
Идентификатор : 1
Формат : AVC
Формат/Информация : Advanced Video Codec
Профиль формата : [url=mailto:High@L4.0]High@L4.0[/url]
Параметр CABAC формата : Да
Параметр ReFrames формата : 2 кадра
Идентификатор кодека : avc1
Идентификатор кодека/Информация : Advanced Video Coding
Продолжительность : 3 м. 53 с.
Продолжительность оригинала : 3 м. 53 с.
Битрейт : 3502 Кбит/сек
Ширина : 1920 пикселей
Высота : 1080 пикселей
Соотношение сторон : 16:9
Режим частоты кадров : Постоянный
Частота кадров : 25,000 кадров/сек
Цветовое пространство : YUV
Субдискретизация насыщенности : 4:2:0
Битовая глубина : 8 бит
Тип развёртки : Прогрессивная
Бит/(Пиксели*Кадры) : 0.068
Размер потока : 97,6 Мбайт (96%)
Размер потока оригинала : 97,6 Мбайт (96%)
Язык : English
mdhd_Duration : 233760
Аудио
Идентификатор : 2
Формат : AAC
Формат/Информация : Advanced Audio Codec
Профиль формата : LC
Идентификатор кодека : 40
Продолжительность : 3 м. 53 с.
Продолжительность оригинала : 3 м. 53 с.
Вид битрейта : Переменный
Битрейт : 126 Кбит/сек
Каналы : 2 канала
Расположение каналов : Front: L R
Частота : 44,1 КГц
Метод сжатия : С потерями
Размер потока : 3,50 Мбайт (3%)
Размер потока оригинала : 3,50 Мбайт (3%)
Язык : English
mdhd_Duration : 233786
Скриншоты:
[Профиль] [ЛС]
Кто просматривает тему:

Показать сообщения:    

Текущее время: Сегодня 06:27

Часовой пояс: GMT



Вы не можете начинать темы
Вы не можете отвечать на сообщения
Вы не можете редактировать свои сообщения
Вы не можете удалять свои сообщения
Вы не можете голосовать в опросах
Вы не можете прикреплять файлы к сообщениям
Вы не можете скачивать файлы