Нюша - Цунами (2014) WEBRip [H.264/2K-LQ]

 
Автор Сообщение

sergej644 ®

Пол:

Стаж: 4 года 11 месяцев

Сообщений: 6043

Откуда: Soviet Union



Награды: Нет

Торрент-статистика

Создавать темы 03-Янв-2015 23:40

[Цитировать]

-Нюша - Цунами (2014) WEBRip [H.264/2K-LQ]- Исполнитель: Нюша
Год выпуска: 2014
Жанр: Pop
Продолжительность: 00:04:25
Описание: Певица Нюша в сентябре побывала в Америке, где в пустыне сняла клип на свою новую зажигательную песню "Цунами", вошедшую в последний студийный альбом "Наедине". Режиссером видео выступил Баходыр Юлдашев, снявший ранее для молодой артистки "Вою на луну", "Не перебивай", "Выбирать чудо" и "Выше". Стоит отметить, что основная часть клипа снималась в пустыне. Новое видео получилось довольно откровенным и сексуальным. Певица показала всю свою страсть, танцуя в откровенном наряде посреди пустыни. О своей новой работе Нюша рассказала в одном из интервью, сказав: "Мы давно не выпускали танцевального видео. Хотелось максимально передать всю страсть этой истории. По моему мнению, именно в танце это можно сделать как нельзя лучше. Сама же идея клипа была показать историю о силе чувств, о неудержимой стихийной страсти, которая волной накрывает влюбленных, о сильнейшем эмоциональном заряде, который по своей энергетике можно сравнить только с цунами."
Качество видео: WEBRip [2K]
Видеокодек: MPEG-4 AVC/H.264
Битрейт видео: ~6107 Кбит/с
Размер кадра: 2048x1080 (16:9), 25,000 кадров/с
Аудиокодек: AAC, 2 ch, stereo
Битрейт аудио: 254 Кбит/с

MediaInfo:

Общее
Полное имя : Нюша - Цунами HD2K.mp4
Формат : MPEG-4
Профиль формата : Base Media / Version 2
Идентификатор кодека : mp42
Размер файла : 201 Мбайт
Продолжительность : 4 м. 25 с.
Режим общего битрейта : Переменный
Общий поток : 6365 Кбит/сек
Видео
Идентификатор : 1
Формат : AVC
Формат/Информация : Advanced Video Codec
Профиль формата : [url=mailto:High@L4.2]High@L4.2[/url]
Параметр CABAC формата : Да
Параметр ReFrames формата : 2 кадра
Идентификатор кодека : avc1
Идентификатор кодека/Информация : Advanced Video Coding
Продолжительность : 4 м. 25 с.
Битрейт : 6107 Кбит/сек
Ширина : 2048 пикселей
Высота : 1080 пикселей
Соотношение сторон : 1,896
Режим частоты кадров : Постоянный
Частота кадров : 25,000 кадров/сек
Цветовое пространство : YUV
Субдискретизация насыщенности : 4:2:0
Битовая глубина : 8 бит
Тип развёртки : Прогрессивная
Бит/(Пиксели*Кадры) : 0.110
Размер потока : 193 Мбайт (96%)
Язык : English
Аудио
Идентификатор : 2
Формат : AAC
Формат/Информация : Advanced Audio Codec
Профиль формата : LC
Идентификатор кодека : 40
Продолжительность : 4 м. 25 с.
Продолжительность оригинала : 4 м. 25 с.
Вид битрейта : Переменный
Битрейт : 254 Кбит/сек
Каналы : 2 канала
Расположение каналов : Front: L R
Частота : 44,1 КГц
Метод сжатия : С потерями
Размер потока : 8,02 Мбайт (4%)
Размер потока оригинала : 8,02 Мбайт (4%)
Язык : English
mdhd_Duration : 265264
Скриншоты:
[Профиль] [ЛС]

Создавать темы 13-Авг-2015 12:07 (спустя 7 месяцев 9 дней)

Топик был перенесен из форума Видеоклипы в форум Наши клипы
sergej644
 
Кто просматривает тему:

Показать сообщения:    

Текущее время: Сегодня 00:34

Часовой пояс: GMT



Вы не можете начинать темы
Вы не можете отвечать на сообщения
Вы не можете редактировать свои сообщения
Вы не можете удалять свои сообщения
Вы не можете голосовать в опросах
Вы не можете прикреплять файлы к сообщениям
Вы не можете скачивать файлы