Нюхач [S02] (2015) WEB-DLRip

 
Автор Сообщение

достали все ®

Пол:

Стаж: 1 год 8 месяцев

Сообщений: 6571



Награды: 12 (Подробнее)

Mega Releaser 3 (Количество: 1) Mega Seeder 2 (Количество: 1) Mega Seeder 4 (Количество: 1)
Торрент-статистика

Создавать темы 07-Окт-2015 03:04

[Цитировать]

Информация о фильме
Название: Нюхач 2
Год выхода: 2015
Жанр: Детектив, драма, криминал
Режиссер: Артем Литвиненко
В ролях: Кирилл Кяро, Иван Оганесян, Николай Чиндяйкин, Агне Грудите, Мария Аниканова, Нина Гогаева, Павел Кузьмин, Сергей Юшкевич, Игорь Ботвин, Александр Фисенко, Денис Мартынов (II), Алексей Зорин, Станислав Москвин, Вадим Лялько, Владимир Коваль (II), Татьяна Комарова, Елена Сикорская, Александр Зиневич, Сергей Лесков, Олег Ким (IV), Виктор Щур, Артём Червоношеенко, Виталий Копилец, Игорь Дяченко, Александр Мартыщенко
О фильме:
Каждое преступление имеет свой запах. В новом сезоне захватывающего сериала Нюхач и Виктор Лебедев продолжают служить правосудию. Дар Нюхача и опыт Лебедева делают их тандем сильным и очень эффективным. Но им приходится сталкиваться не только с рядовыми преступниками: за каждым шагом Нюхача и Виктора следит таинственная организация, и им приходится распутывать целую сеть из тайн, загадок и преступлений. Сумеет ли их дружба выдержать все испытания? И смогут ли они победить таинственного врага?
Страна: Украина, Россия
Студия: Pronto Film, Film.UA
Продолжительность: 8 x ~ 00:55:00
Перевод: Не требуется
Файл
Кодек: XviD
Качество: WEB-DLRip
Видео: XviD, 1200 Кбит/с, 704х400
Звук: MP3, 2 ch, 128 Кбит/с

МедиаИнфо

Общее
Полное имя : Njuhach-2.(08.serij.iz.08).2015.XviD.WEB-DLRip.by.GeneralFilm�2.Njuhach-2.avi
Формат : AVI
Формат/Информация : Audio Video Interleave
Размер файла : 556 Мбайт
Продолжительность : 51 м.
Общий поток : 1509 Кбит/сек
Программа кодирования : VirtualDubMod 1.5.10.3 | www.virtualdub-fr.org || (build 2550/release)
Библиотека кодирования : VirtualDubMod build 2550/release
Видео
Идентификатор : 0
Формат : MPEG-4 Visual
Профиль формата : Advanced Simple@L5
Параметр BVOP формата : 1
Параметр QPel формата : Нет
Параметр GMC формата : Без точки перехода
Параметр матрицы формата : Выборочная
Идентификатор кодека : XVID
Идентификатор кодека/Подсказка : XviD
Продолжительность : 51 м.
Битрейт : 1371 Кбит/сек
Ширина : 704 пикселя
Высота : 400 пикселей
Соотношение сторон : 16:9
Частота кадров : 25,000 кадров/сек
Цветовое пространство : YUV
Субдискретизация насыщенности : 4:2:0
Битовая глубина : 8 бит
Тип развёртки : Прогрессивная
Метод сжатия : С потерями
Бит/(Пиксели*Кадры) : 0.195
Размер потока : 505 Мбайт (91%)
Библиотека кодирования : XviD 73
Аудио
Идентификатор : 1
Формат : MPEG Audio
Версия формата : Version 1
Профиль формата : Layer 3
Идентификатор кодека : 55
Идентификатор кодека/Подсказка : MP3
Продолжительность : 51 м.
Вид битрейта : Постоянный
Битрейт : 128 Кбит/сек
Каналы : 2 канала
Частота : 48,0 КГц
Метод сжатия : С потерями
Размер потока : 47,1 Мбайт (8%)
Выравнивание : Соединение по промежуткам
Продолжительность промежутка : 40 мс. (1,00 видеокадр)
Время предзагрузки промежутка : 504 мс.
Библиотека кодирования : LAME3.99r
Настройки программы : -m s -V 4 -q 0 -lowpass 17 -b 128
Релиз от:
[Профиль] [ЛС]
Показать сообщения:    

Текущее время: Сегодня 02:25

Часовой пояс: GMT



Вы не можете начинать темы
Вы не можете отвечать на сообщения
Вы не можете редактировать свои сообщения
Вы не можете удалять свои сообщения
Вы не можете голосовать в опросах
Вы не можете прикреплять файлы к сообщениям
Вы не можете скачивать файлы