Нюрнберг. 70 лет спустя [2014, Документальный, HDTV 1080i] [Россия HD]

 
Автор Сообщение

TorrentFilm ®

Пол:

Стаж: 2 года

Сообщений: 7741



Награды: Нет

Торрент-статистика

Создавать темы 29-Дек-2014 00:15

[Цитировать]

Нюрнберг. 70 лет спустя
Год выпуска: 2014
Страна: Россия
Жанр: Документальный
Продолжительность: 00:46:11
Перевод: Не требуется
Описание: Сейчас Нюрнберг - типичный баварский город, красивый и веселый. В 45-м он лежал в руинах. Но именно к нему было приковано внимание всего мира. В зале суда № 600, где судили лидеров Третьего рейха, тогда разворачивалась последняя битва с нацизмом. Битва документов. Свидетельств. Нервов. В стане обвинителей и судей не было полного единства. Для союзников русские - чужаки. Коммунисты. Разный менталитет. Разные системы права.Зато нацисты выступали единым фронтом. Яростно отрицали свою вину - надеялись уйти от правосудия. Те, кто убивал без суда и следствия, теперь взывали к Фемиде. Главный обвинитель от СССР прокурор Роман Руденко не имел права на ошибку. Из Москвы за процессом пристально наблюдал Сталин.Нюрнбергский процесс длился почти год. Было всякое - недоверие и недопонимание, противостояние спецслужб и провокации, скандалы и разоблачения. Как все-таки удалось победить? Склонить чашу весов на свою сторону? Ведь итог процесса предсказать было невозможно...В фильме принимают участие: Сергей Руденко, дипломат, сын Главного обвинителя от Советского Союза Романа Руденко, он впервые посетит город, в котором состоялся триумф его отца; Иосиф Гофман, личный охранник Романа Руденко на Нюрнбергском трибунале, один из немногих живых свидетелей процесса; Сергей Нарышкин, председатель Госдумы РФ; Михаил Шмушкович, племянник руководителя группы советских переводчиков Евгения Гофмана, мемуары которого впервые будут озвучены в этом фильме.
Тип релиза: HDTV 1080i
Контейнер: TS
Видео: H264; 1920x1080 (16:9); 25.000 fps; ~ 7 648 Kbps
Аудио: MPEG Audio 48000Hz stereo 192 Кбит/сек

MediaInfo

GeneralID : 1 (0x1)Complete name : F:\Россия HD\Нюрнберг. 70 лет спустя.tsFormat : MPEG-TSFile size : 2.66 GiBDuration : 46mn 11sOverall bit rate mode : VariableOverall bit rate : 8 250 Kbps
VideoID : 2292 (0x8F4)Menu ID : 1 (0x1)Format : AVCFormat/Info : Advanced Video CodecFormat profile : High@L4.0Format settings, CABAC : YesFormat settings, ReFrames : 4 framesCodec ID : 27Duration : 46mn 11sBit rate : 7 648 KbpsWidth : 1 920 pixelsHeight : 1 080 pixelsDisplay aspect ratio : 16:9Frame rate : 25.000 fpsColor space : YUVChroma subsampling : 4:2:0Bit depth : 8 bitsScan type : MBAFFBits/(Pixel*Frame) : 0.148Stream size : 2.47 GiB (93%)
AudioID : 2295 (0x8F7)Menu ID : 1 (0x1)Format : MPEG AudioFormat version : Version 1Format profile : Layer 2Codec ID : 3Duration : 46mn 11sBit rate mode : ConstantBit rate : 192 KbpsChannel(s) : 2 channelsSampling rate : 48.0 KHzCompression mode : LossyStream size : 63.4 MiB (2%)Language : English

Скриншоты

[Профиль] [ЛС]
Кто просматривает тему:

Показать сообщения:    

Текущее время: Сегодня 02:44

Часовой пояс: GMT



Вы не можете начинать темы
Вы не можете отвечать на сообщения
Вы не можете редактировать свои сообщения
Вы не можете удалять свои сообщения
Вы не можете голосовать в опросах
Вы не можете прикреплять файлы к сообщениям
Вы не можете скачивать файлы